Richard Bandler - Welcome to Reality

Download Now

Richard Bandler - Welcome to Reality

Richard Bandler - Welcome to Reality
VHSRip | English | MPG | 320 x 240 | MPEG ~1138 kbps | 29.970 fps
MPEG Audio | 224 Kbps | 44.1 KHz | 2 channels | ~10 hours | 6.62 GB
Genre: eLearning Video / Physiology, NLP, Neurology

"A suggestive room - two armchairs, painting on the walls, in the center is Richard Bandler, spreading full associations, stories and gestures, with participants creating internal images that stretch the perceptual senses and emotions . . . a long trance, as well as elegantly interlaced patterns processing from depression to stretching belief systems, to sexual conflicts, to decision strategies, to the influence of NLP on neurology and physiology."

Then Richard Bandler leaves his armchair and sets the interventions into living pictures - bizarre and stunningly, unambiguously, successfully - and finally leads a conversation intervention with a client. How does he do it; that he creates the ability to do influential interventions over hours without people noticing? Then there are demonstrations of NLP. People not only feel better, but look happier, live better, are nicer, and are simply more fulfilled with joy and bliss. Richard Bandler includes trance demonstrations. After the extraordinary trance inductions, and relaxation, the internal learning and understanding begins . . . with deep trance phenomena . . . An exquisite workshop with Richard Bandler. *Due to the nature of multi region DVD players, this DVD may play on many but we cannot test all available players around the world. This product is not guaranteed outside the US on players that are not US NTSC and international sales are final with no replacement for defects guarantee. Contains Adult Language A $250 value

Complete name : Welcome to reality - 2001 - part 5.1.mpg
File size
: 596 MiB
: 1h 0mn
Overall bit rate mode : Variable
Overall bit rate : 1 390 Kbps

ID : 224 (0xE0)
: MPEG Video
Format version : Version 1
Format settings, BVOP : Yes
Format settings, Matrix : Default
: 1h 0mn
Bit rate mode : Variable
Bit rate
: 1 138 Kbps
Maximum bit rate : 1 152 Kbps
: 320 pixels
: 240 pixels
Display aspect ratio : 4:3
Frame rate
: 29.970 fps
Color space
Bit depth
: 8 bits
Scan type
: Progressive
Compression mode : Lossy

: 0.494
Stream size
: 488 MiB (82%)

ID : 192 (0xC0)
: MPEG Audio
Format version : Version 1
Format profile : Layer 2
: 59mn 59s
Bit rate mode : Constant
Bit rate
: 224 Kbps
: 2 channels
Sampling rate : 44.1 KHz
Compression mode : Lossy
Delay relative to video : 215ms
Stream size
: 96.1 MiB (16%)


Richard Bandler - Welcome to Reality

Richard Bandler - Welcome to Reality

Richard Bandler - Welcome to Reality

Download Links:
(Premium Recommended)

All above links are interchangable. No password

Direct Download

Tags: Richard, Bandler, Welcome, Reality

Richard Bandler - Welcome to Reality Download via Hotfile Rapidshare Fileserve Megaupload & FileSonic, Richard Bandler - Welcome to Reality free torrent downloads included crack, serial, keygen.


Members of Guest cannot leave comments.