Jonathan Taggart - Life Off Grid (2014) [1 Webrip - MP4]

Download Now

Jonathan Taggart - Life Off Grid (2014) [1 Webrip - MP4]

Jonathan Taggart - Life Off Grid (2014) [1 Webrip - MP4]
English | Size: 368.67 MB (386,577,098 bytes)
Category: Survivalism

Off-grid isn't a state of mind. It isn't about someone being out of touch, about a place that is hard to get to, or about a weekend spent offline. Officially, "off grid" refers to a home or town that is disconnected from the electricity and natural gas networks that serve a region. Living off-grid, therefore, means having to radically re-invent life as we know it. It means choosing to live in a way that is dramatically innovative: a way that draws on skills of the past and is inspired by concerns for our collective future.
Life Off Grid explores the lives of Canadians in every province and who have made the choice to disconnect. The film explores the ways by which a variety of people, all with different environmental concerns and constraints, live away from contemporary civilization. It raises important questions about the future: questions about the struggles and successes found along our path towards a life that is environmentally and socially more sustainable. Off-grid homes are experimental labs for our collective future, an intimate look into unusual contemporary domestic lives, and a call to the rest of us leading ordinary lives to examine what we take for granted.

Life Off Grid travels from west to east, from province to province and territory to territory, on a two-year journey exploring how and why Canadians disconnect from larger infrastructures. The film explores themes of motivation and inspiration, unpacks the challenges associated with regional climates and economies, and shows how people living off the grid deal with the everyday demands of heat, light, water, food, and waste.

Complete name : Life Off Grid\Life Off Grid.mp4
: MPEG-4
Format profile : Base Media / Version 2
Codec ID
: mp42
File size
: 369 MiB
: 1h 25mn
Overall bit rate mode : Variable
Overall bit rate : 603 Kbps
Encoded date : UTC 2015-09-18 00:12:01
Tagged date
: UTC 2015-09-18 00:12:01

ID : 1
: Advanced Video Codec
Format profile : [email protected]
Format settings, CABAC : Yes
Format settings, Reframes : 4 frames
Codec ID
: avc1
Codec ID/Info : Advanced Video Coding
: 1h 25mn
Bit rate
: 486 Kbps
: 640 pixels
: 360 pixels
Display aspect ratio : 16:9
frame rate mode : Constant
frame rate
: 29.970 fps
Color space
Chroma subsampling

: 4:2:0
Bit depth
: 8 bits
Scan type
: Progressive

: 0.070
Stream size
: 297 MiB (81%)
Writing library : x264 core 148 r11 73ae2d1
Encoded date : UTC 2015-09-18 00:12:01
Tagged date
: UTC 2015-09-18 00:12:01
Color primaries : BT.601 NTSC
Transfer characteristics : BT.601
Matrix coefficients

: BT.601
Color range
: Limited

ID : 2
: Advanced Audio Codec
Format profile : LC
Codec ID
: 40
: 1h 25mn
Bit rate mode : Variable
Bit rate
: 112 Kbps
: 2 channels
Channel positions: Front: L R
Sampling rate : 48.0 KHz
Compression mode : Lossy
Stream size
: 68.5 MiB (19%)
Encoded date : UTC 2015-09-18 00:12:01
Tagged date
: UTC 2015-09-18 00:12:01
Buy Premium To Support Me & Get Resumable Support & Max Speed

Links are Interchangeable - No Password

Direct Download

Tags: Jonathan, Taggart, Webrip

Jonathan Taggart - Life Off Grid (2014) [1 Webrip - MP4] Download via Hotfile Rapidshare Fileserve Megaupload & FileSonic, Jonathan Taggart - Life Off Grid (2014) [1 Webrip - MP4] free torrent downloads included crack, serial, keygen.


Members of Guest cannot leave comments.