National Geographic - Wild Australia (2014)

Download Now

National Geographic - Wild Australia (2014)
National Geographic - Wild Australia (2014)
HDTV | 1280x720 | .MP4/AVC @ 3003 Kbps | 4x~43min | Audio: English AAC 160 kbps, 2 channels | Subs: None | 3.9 GiB
Genre: Documentary

"Australia - a continent of natural wonders. This four-part series takes you off to the kingdom of the kangaroo and red rocks with breathtaking aerial footage, riveting super slow motion and extraordinary animal stories. Yet Australia has much more to offer than its red heart: impenetrable jungle in the farthest north-east, bizarre native creatures like the cassowary and tree-kangaroo. In the east lives Australia's teddy bear, the koala. For the first time, footage from the highest tops of the eucalyptus forest shows how radical and brutal these cuddly koalas really are! In the heat of South Australia, many marsupials have adapted to life underground: quirky wombats build giant tunnel systems, and whenever an enemy approaches they block the entrance with their hefty hindquarters. Down Under is quite unique! The red continent has never been seen as vividly as in this high-quality nature documentary series."

Part 1: Desert Of The Red Kangaroo
In the heart of Australia, the largest marsupial on earth must survive months of drought and blistering heat on a few patches of dry grass.

Part 2: Jurassic Jungle
The tropical rainforest in the country's North-East is home to kangaroos who climb trees, the largest crocodiles on Earth, and colourful birds.

Part 3: Realm of the Wombat
In the dry southern plains, wombats spend a lot of time asleep, but must fight with invasive species, bulldog ants, and the heat of summer.

Part 4: Koala Forest
The eastern eucalyptus forests are home to cuddly-looking koalas, birds that build elaborate nests, snakes, and odd egg-laying mammals.

Complete name : Wild.Australia.1of4.Desert.Of.The.Red.Kangaroo.mp4
: MPEG-4
Format profile : Base Media
Codec ID
: isom
File size
: 993 MiB
: 43mn 49s
Overall bit rate mode : Variable
Overall bit rate : 3 168 Kbps

ID : 1
: Advanced Video Codec
Format profile : [email protected]
Format settings, CABAC : No
Format settings, ReFrames : 1 frame
Format settings, GOP : M=1, N=12
Codec ID
: avc1
Codec ID/Info : Advanced Video Coding
: 43mn 49s
Bit rate
: 3 003 Kbps
: 1 280 pixels
: 720 pixels
Display aspect ratio : 16:9
Frame rate mode : Constant
Frame rate
: 25.000 fps
Color space
Chroma subsampling

: 4:2:0
Bit depth
: 8 bits
Scan type
: Progressive

: 0.130
Stream size
: 941 MiB (95%)
: English
Encoded date : UTC 2015-06-01 23:13:42
Tagged date
: UTC 2015-06-01 23:13:42

ID : 2
: Advanced Audio Codec
Format profile : LC
Codec ID
: 40
: 43mn 48s
Bit rate mode : Variable
Bit rate
: 160 Kbps
: 2 channels
Channel positions: Front: L R
Sampling rate : 48.0 KHz
Compression mode : Lossy
Stream size
: 50.1 MiB (5%)
Encoded date : UTC 2015-06-01 23:13:42
Tagged date
: UTC 2015-06-01 23:13:42


National Geographic - Wild Australia (2014)

National Geographic - Wild Australia (2014)

National Geographic - Wild Australia (2014)

National Geographic - Wild Australia (2014)

Buy Premium To Support Me & Get Resumable Support & Max Speed

Links are Interchangeable - No Password - Single Extraction

Direct Download

Tags: National, Geographic, Australia

National Geographic - Wild Australia (2014) Download via Hotfile Rapidshare Fileserve Megaupload & FileSonic, National Geographic - Wild Australia (2014) free torrent downloads included crack, serial, keygen.


Members of Guest cannot leave comments.