Men In Black III 2012 TS NEW SOURCE XviD SLiCK

Download Now

Men In Black III (2012) TS NEW SOURCE XviD SLiCK
Men In Black III (2012) TS NEW SOURCE XviD SLiCK | 1.33 GB


General Information
Complete name : Men In Black III (2012) TS NEW SOURCE XviD SLiCK.avi
Format : AVI
Format/Info : Audio Video Interleave
File size : 1.33 GiB
Duration : 1h 38mn
Overall bit rate : 1 942 Kbps

Video
ID : 0
Format : MPEG-4 Visual
Format profile : Advanced [email protected]
Format settings, BVOP : 2
Format settings, QPel : Yes
Format settings, GMC : No warppoints
Format settings, Matrix : Default (H.263)
Codec ID : XVID
Codec ID/Hint : XviD
Duration : 1h 38mn
Bit rate : 1 549 Kbps
Width : 720 pixels
Height : 368 pixels
Display aspect ratio : 1.957
Frame rate : 29.970 fps
Color space : YUV
Chroma subsampling : 4:2:0
Bit depth : 8 bits
Scan type : Progressive
Compression mode : Lossy
Bits/(Pixel*Frame) : 0.195
Stream size : 1.06 GiB (80%)
Writing library : XviD 1.2.1 (UTC 2008-12-04)

Audio
ID : 1
Format : AC-3
Format/Info : Audio Coding 3
Mode extension : CM (complete main)
Format settings, Endianness : Big
Codec ID : 2000
Duration : 1h 38mn
Bit rate mode : Constant
Bit rate : 384 Kbps
Channel(s) : 6 channels
Channel positions : Front: L C R, Side: L R, LFE
Sampling rate : 48.0 KHz
Bit depth : 16 bits
Compression mode : Lossy
Stream size : 269 MiB (20%)
Alignment : Aligned on interleaves
Interleave, duration : 64 ms (1.92 video frames)
Interleave, preload duration : 192 ms
Title : Men In Black (2012) SLiCK

Notes
Source(s): 1080p Cam-King James (thanks)

The source for this was awesome, only downside is the
flicker and no way of getting rid of it, i think it's
cause by the camcorder shutter speed, looks like he used
50KHz instead of 60KHz or vise versa but it's still a great
cam so just did a few tweaks with rgb, brightness, contrast
etc then muxed/sync over 26k audio.

Plot
106 min - Action | Comedy | Sci-Fi - 25 May 2012 (UK)

In Men in Black 3, Agents J (Will Smith) and K (Tommy Lee Jones) are back...in time. J has seen some inexplicable things in his 15 years with the Men in Black, but nothing, not even aliens, perplexes him as much as his wry, reticent partner. But when K's life and the fate of the planet are put at stake, Agent J will have to travel back in time to put things right. J discovers that there are secrets to the universe that K never told him -- secrets that will reveal themselves as he teams up with the young Agent K (Josh Brolin) to save his partner, the agency, and the future of humankind.

IMDb Link:
http://www.imdb.com/title/tt1409024/



Direct Download

Tags: SOURCE

Men In Black III 2012 TS NEW SOURCE XviD SLiCK Download via Hotfile Rapidshare Fileserve Megaupload & FileSonic, Men In Black III 2012 TS NEW SOURCE XviD SLiCK free torrent downloads included crack, serial, keygen.


Attention!Information

Members of Guest cannot leave comments.