One in the Chamber 2012 BRRiP XViD AC3 Ryan

Download Now

One in the Chamber 2012 BRRiP XViD AC3 - Ryan
One in the Chamber 2012 BRRiP XViD AC3 - Ryan | 1.45 GB


General
Complete name : One in the Chamber 2012 BRRiP XViD AC3 - Ryan.avi
Format : AVI
Format/Info : Audio Video Interleave
File size : 1.45 GiB
Duration : 1h 31mn
Overall bit rate : 2 278 Kbps
Writing application : VirtualDubMod 1.5.10.2 (build 2540/release)
Writing library : VirtualDubMod build 2540/release

Video
ID : 0
Format : MPEG-4 Visual
Format profile : Advanced [email protected]
Format settings, BVOP : 3
Format settings, QPel : No
Format settings, GMC : No warppoints
Format settings, Matrix : Custom
Codec ID : XVID
Codec ID/Hint : XviD
Duration : 1h 31mn
Bit rate : 1 949 Kbps
Width : 720 pixels
Height : 400 pixels
Display aspect ratio : 16:9
Frame rate : 23.976 fps
Color space : YUV
Chroma subsampling : 4:2:0
Bit depth : 8 bits
Scan type : Progressive
Compression mode : Lossy
Bits/(Pixel*Frame) : 0.282
Stream size : 1.24 GiB (86%)
Writing library : XviD 1.2.1 (UTC 2008-12-04)

Audio
ID : 1
Format : AC-3
Format/Info : Audio Coding 3
Mode extension : CM (complete main)
Format settings, Endianness : Big
Codec ID : 2000
Duration : 1h 31mn
Bit rate mode : Constant
Bit rate : 320 Kbps
Channel(s) : 6 channels
Channel positions : Front: L C R, Side: L R, LFE
Sampling rate : 48.0 KHz
Bit depth : 16 bits
Compression mode : Lossy
Stream size : 209 MiB (14%)
Alignment : Split accross interleaves
Interleave, duration : 42 ms (1.00 video frame)
Interleave, preload duration : 500 ms


Download Now

Netload.in

http://netload.in/datei3XiPcOlI1k/One.in.the.Chamber.2012.BRRiP.XViD.AC3.-.Ryan.rar.htm

Extabit

http://extabit.com/file/27u7q4ufxfgfa/One in the Chamber 2012 BRRiP XViD AC3 - Ryan.rar

Direct Download

Tags: Chamber

One in the Chamber 2012 BRRiP XViD AC3 Ryan Download via Hotfile Rapidshare Fileserve Megaupload & FileSonic, One in the Chamber 2012 BRRiP XViD AC3 Ryan free torrent downloads included crack, serial, keygen.


Attention!Information

Members of Guest cannot leave comments.