Secret of the Wings 2012 Bluray 1080p DTS X264 BluEvo

Download Now

Secret of the Wings (2012) Bluray 1080p DTS X264 - BluEvo
Secret of the Wings 2012 Bluray 1080p DTS X264 - BluEvo | 8.65 GB


R E L E A S E ---------------------------------------------------------------------->
/-----------------------------------------------------------------------------------
| Secret of the Wings 2012 Bluray 1080p DTS X264 - BluEvo |

| - Source : Bluray - Type: Movie |
| - encoded By: InSaNe - Format: x264 |

| - Audio : DTS-HD - Source Audio: DTS-HD |
| - Total Size: 8.58 Gb - Release Date: 26.12.2012 |

| - Imdb : http://uk.imdb.com/title/tt1217213/ |

| - Genre : Animation | Family | Fantasy |

ITS NOT ABOUT SPEED - - ITS ALL ABOUT QUALITY !
We Are Currently Looking For Encoders !
If You Think You Can Help Out Group BluEvo Come Talk To Us !

Format : Matroska
Format version : Version 4 / Version 2
File size : 8.58 GiB
Duration : 1h 15mn
Overall bit rate : 16.4 Mbps

Format : AVC
Format/Info : Advanced Video Codec
Format profile : [email protected]
Format settings, CABAC : Yes
Format settings, ReFrames : 4 frames
Muxing mode : Header stripping
Codec ID : V_MPEG4/ISO/AVC
Duration : 1h 15mn
Bit rate : 14.8 Mbps
Width : 1 920 pixels
Height : 1 072 pixels
Display aspect ratio : 16:9
Frame rate mode : Constant
Frame rate : 23.976 fps
Color space : YUV
Chroma subsampling : 4:2:0
Bit depth : 8 bits
Scan type : Progressive
Bits/(Pixel*Frame) : 0.300
Stream size : 7.62 GiB (89%)
Writing library : x264 core 129 r2230 1cffe9f
Language : English
Default : Yes
Forced : No

Format : DTS
Format/Info : Digital Theater Systems
Mode : 16
Format settings, Endianness : Big
Muxing mode : Header stripping
Codec ID : A_DTS
Duration : 1h 15mn
Bit rate mode : Constant
Bit rate : 1 509 Kbps
Channel(s) : 6 channels
Channel positions : Front: L C R, Side: L R, LFE
Sampling rate : 48.0 KHz
Bit depth : 24 bits
Compression mode : Lossy
Stream size : 810 MiB (9%)
Default : Yes
Forced : No

Plot

Tinker Bell meets Periwinkle and ventures into the winter woods with her and Tinker Bell's other friends to find the secret of fairy wings


Download Now

Extabit

Secret.of.the.Wings.2012.Bluray.1080p.DTS.X264 - BluEvo.part1.rar
Secret.of.the.Wings.2012.Bluray.1080p.DTS.X264 - BluEvo.part2.rar
Secret.of.the.Wings.2012.Bluray.1080p.DTS.X264 - BluEvo.part3.rar
Secret.of.the.Wings.2012.Bluray.1080p.DTS.X264 - BluEvo.part4.rar
Secret.of.the.Wings.2012.Bluray.1080p.DTS.X264 - BluEvo.part5.rar

Rapidgator

Secret.of.the.Wings.2012.Bluray.1080p.DTS.X264_-_BluEvo.part1.rar
Secret.of.the.Wings.2012.Bluray.1080p.DTS.X264_-_BluEvo.part2.rar
Secret.of.the.Wings.2012.Bluray.1080p.DTS.X264_-_BluEvo.part3.rar
Secret.of.the.Wings.2012.Bluray.1080p.DTS.X264_-_BluEvo.part4.rar
Secret.of.the.Wings.2012.Bluray.1080p.DTS.X264_-_BluEvo.part5.rar

Ryushare

Secret.of.the.Wings.2012.Bluray.1080p.DTS.X264 - BluEvo.part1.rar - 2.0 GB
Secret.of.the.Wings.2012.Bluray.1080p.DTS.X264 - BluEvo.part2.rar - 2.0 GB
Secret.of.the.Wings.2012.Bluray.1080p.DTS.X264 - BluEvo.part3.rar - 2.0 GB
Secret.of.the.Wings.2012.Bluray.1080p.DTS.X264 - BluEvo.part4.rar - 2.0 GB
Secret.of.the.Wings.2012.Bluray.1080p.DTS.X264 - BluEvo.part5.rar - 675.2 MB

Direct Download

Tags: BluEvo, Bluray, Secret

Secret of the Wings 2012 Bluray 1080p DTS X264 BluEvo Download via Hotfile Rapidshare Fileserve Megaupload & FileSonic, Secret of the Wings 2012 Bluray 1080p DTS X264 BluEvo free torrent downloads included crack, serial, keygen.


Attention!Information

Members of Guest cannot leave comments.