300 Rise of an Empires (2014) 3D H-SBS 1080p

Download Now


300 Rise of an Empires (2014) 3D H-SBS 1080p

ORIGINAL TITLE: 300: Rise of an Empire
YEAR 2014
DURATION: 102 min.
COUNTRY: USA
DIRECTOR: Noam Murro
SCREENWRITER: Zack Snyder, Kurt Johnstad (Graphic Novel: Frank Miller)
Sullivan Stapleton, Eva Green, Lena Headey, Jack O'Connell, Andrew Tiernan, David Wenham, Callan Mulvey, Andrew Pleavin, Yigal Naor, Ashraf Barhom, Vincent Walsh, Steven Cree, Trayan Milenov-Troy, Andrei Claude , Peter Ferdinando, Mark Killeen, Peter Mensah
STUDIO / PRODUCER: Atmosphere Entertainment MM / Cruel & Unusual Films / Hollywood Gang Productions / Legendary Pictures / Warner Bros. Pictures
GENDER: Action. Belico | Ancient Greece. Epic movies. Sequel Spin-off. Comic. 3-D
Medical Wars (500-479 BC). The Greek general Temistocles struggles for the unity of the Greek polis. He leads the Greek troops who are facing the Persian army, led by Xerxes and Artemis, to prevent the invasion of the country. Spin-off of the film / comic 300, based on the graphic novel "Xerxes", by Frank Miller

http://www.imdb.com/title/tt1253863/?ref_=nv_sr_1
https://www.youtube.com/watch?v=d_un4oh2788


General
Format : Matroska
Format version : Version 2
File size : 12.4 GiB
Duration : 1h 42mn
Overall bit rate : 17.3 Mbps
Encoded date : UTC 2014-06-06 15:48:58
Writing application : mkvmerge v5.7.0 ('The Whirlwind') built on Jul 8 2012 20:08:51
Writing library : libebml v1.2.3 + libmatroska v1.3.0
Video
ID : 1
Format : AVC
Format/Info : Advanced Video Codec
Format profile : [email protected]
Format settings, CABAC : Yes
Format settings, ReFrames : 4 frames
Format settings, GOP : M=7, N=9
Muxing mode : Header stripping
Codec ID : V_MPEG4/ISO/AVC
Duration : 1h 42mn
Bit rate : 14.4 Mbps
Width : 1 920 pixels
Height : 1 080 pixels
Display aspect ratio : 16:9
Frame rate mode : Constant
Frame rate : 23.976 fps
Color space : YUV
Chroma subsampling : 4:2:0
Bit depth : 8 bits
Scan type : Progressive
Bits/(Pixel*Frame) : 0.289
Stream size : 10.3 GiB (83%)
Title : www.club-hd.com
Writing library : x264 core 133 r2334 a3ac64b
Language : English
Default : Yes
Forced : No
Audio #1
ID : 2
Format : AC-3
Format/Info : Audio Coding 3
Mode extension : CM (complete main)
Format settings, Endianness : Big
Muxing mode : Header stripping
Codec ID : A_AC3
Duration : 1h 42mn
Bit rate mode : Constant
Bit rate : 448 Kbps
Channel(s) : 6 channels
Channel positions : Front: L C R, Side: L R, LFE
Sampling rate : 48.0 KHz
Bit depth : 16 bits
Compression mode : Lossy
Stream size : 329 MiB (3%)
Title : AC3 5.1
Language : Spanish
Default : Yes
Forced : No
Audio #2
ID : 3
Format : AC-3
Format/Info : Audio Coding 3
Mode extension : CM (complete main)
Format settings, Endianness : Big
Muxing mode : Header stripping
Codec ID : A_AC3
Duration : 1h 42mn
Bit rate mode : Constant
Bit rate : 640 Kbps
Channel(s) : 6 channels
Channel positions : Front: L C R, Side: L R, LFE
Sampling rate : 48.0 KHz
Bit depth : 16 bits
Compression mode : Lossy
Stream size : 470 MiB (4%)
Title : AC3 5.1
Language : English
Default : No
Forced : No
Audio #3
ID : 4
Format : DTS
Format/Info : Digital Theater Systems
Mode : 16
Format settings, Endianness : Big
Muxing mode : Header stripping
Codec ID : A_DTS
Duration : 1h 42mn
Bit rate mode : Constant
Bit rate : 1 509 Kbps
Channel(s) : 6 channels
Channel positions : Front: L C R, Side: L R, LFE
Sampling rate : 48.0 KHz
Bit depth : 24 bits
Compression mode : Lossy
Stream size : 1.08 GiB (9%)
Title : DTS 5.1
Language : English
Default : No
Forced : No
Text
ID : 5
Format : VobSub
Muxing mode : zlib
Codec ID : S_VOBSUB
Codec ID/Info : The same subtitle format used on DVDs
Language : Spanish
Default : No
Forced : No


300 Rise of an Empires (2014) 3D H-SBS 1080p
300 Rise of an Empires (2014) 3D H-SBS 1080p

300 Rise of an Empires (2014) 3D H-SBS 1080p



Direct Download

Tags: Empires

300 Rise of an Empires (2014) 3D H-SBS 1080p Download via Hotfile Rapidshare Fileserve Megaupload & FileSonic, 300 Rise of an Empires (2014) 3D H-SBS 1080p free torrent downloads included crack, serial, keygen.


Attention!Information

Members of Guest cannot leave comments.