Ron Hacker And The Hacksaws - Back Door Man (2000)

Download Now

Ron Hacker And The Hacksaws - Back Door Man (2000)

Ron Hacker And The Hacksaws - Back Door Man (2000)
EAC Rip | FLAC (Img) + Cue + Log ~ 363 Mb | MP3 CBR320 ~ 133 Mb
Scans Included (JPG, 300 dpi) | RAR 5% Recovery
Blues, Rock | The Saloon Recordings #SR2000CD

"8 original songs from blues guitarist & his band, inc. 2 tracks recorded live at The Saloon & 3 solo acoustic numbers; band features Artis Joyce (formerly with Charlie Musselwhite & Sista Monica) & Shad Harris (formerly with Tommy Castro). One could easily say that the blues saved Ron Hacker's life. It certainly changed his life and gave him a purpose and a structure, and he developed into a powerful slide guitar player with a too-little-known but sturdy musical legacy..."

All Music
***************

Ron Hacker And The Hacksaws - Back Door Man (2000)

Track List:

01. Big Brown Eyes [0:02:27.36]
02. Two Timin' Woman [0:03:01.60]
03. Back Door Man [0:05:44.20]
04. My Bad Boy [0:05:06.37]
05. Mambo for Albert [0:04:45.56]
06. Ax Sweet Mama [0:03:21.46]
07. Yank Told Me [0:03:36.80]
08. Hear Me Sing Like Elmore James [0:03:52.64]
09. Iґm Gonna Miss You Like the Devil [0:04:18.56]
10. Hate to See You Go [0:02:42.86]
11. I Got Tattooed [0:03:01.84]
12. Diddley Widdley [0:06:28.09]
13. Come On In My Kitchen [0:02:43.73]

Exact Audio Copy V0.99 prebeta 4 from 23. January 2008

EAC extraction logfile from 12. December 2010, 3:35

Ron Hacker and the Hacksaws / Back Door Man

Used drive : PLEXTOR DVDR PX-820A Adapter: 3 ID: 1

Read mode : Secure
Utilize accurate stream : Yes
Defeat audio cache : Yes
Make use of C2 pointers : No

Read offset correction

: 48
Overread into Lead-In and Lead-Out : No
Fill up missing offset samples with silence : Yes
Delete leading and trailing silent blocks : No
Null samples used in CRC calculations : Yes
Used interface
: Native Win32 interface for Win NT & 2000

Used output format : Internal WAV Routines
Sample format : 44.100 Hz; 16 Bit; Stereo

TOC of the extracted CD Track | Start | Length | Start sector | End sector
1 | 0:00.00 | 2:27.27 | 0 | 11051 2 | 2:27.27 | 3:01.45 | 11052 | 24671 3 | 5:28.72 | 5:44.15 | 24672 | 50486 4 | 11:13.12 | 5:06.28 | 50487 | 73464 5 | 16:19.40 | 4:45.42 | 73465 | 94881 6 | 21:05.07 | 3:21.35 | 94882 | 109991 7 | 24:26.42 | 3:36.60 | 109992 | 126251 8 | 28:03.27 | 3:52.48 | 126252 | 143699 9 | 31:56.00 | 4:18.42 | 143700 | 163091
10 | 36:14.42 | 2:42.65 | 163092 | 175306
11 | 38:57.32 | 3:01.63 | 175307 | 188944
12 | 41:59.20 | 6:28.07 | 188945 | 218051
13 | 48:27.27 | 2:43.55 | 218052 | 230331

Range status and errors

Selected range Filename D:\КОЛЛЕКЦИЯ 9\RON HACKER\Ron Hacker and the Hacksaws - Back Door Man.wav Peak level 100.0 %
Range quality 100.0 %
Copy CRC 40E38A29
Copy OK

No errors occurred


AccurateRip summary

Track 1 accurately ripped (confidence 3) [7BE265F6]
Track 2 accurately ripped (confidence 4) C36D1C4
Track 3 accurately ripped (confidence 3) [AD6432AE]
Track 4 accurately ripped (confidence 4) [36B06833]
Track 5 accurately ripped (confidence 3) [2D40AD94]
Track 6 accurately ripped (confidence 3) [1661F47E]
Track 7 accurately ripped (confidence 3) [0BBE4C2B]
Track 8 accurately ripped (confidence 4) [4F107FCC]
Track 9 accurately ripped (confidence 3) [FB1D91D0]
Track 10 accurately ripped (confidence 3) [3E222263]
Track 11 accurately ripped (confidence 3) [94F88342]
Track 12 accurately ripped (confidence 3) [444B40DC]
Track 13 accurately ripped (confidence 3) [ACF5C3CA]

All tracks accurately ripped

End of status report

foobar2000 1.2.6 / Dynamic Range Meter 1.1.1
log date: 2015-05-27 02:24:01

------
Analyzed: Ron Hacker and the Hacksaws / Back Door Man
------

DR Peak RMS Duration Track
------
DR11 0.00 dB -13.41 dB 2:27 01-Big Brown Eyes
DR7 0.00 dB -9.09 dB 3:02 02-Two Timin' Woman
DR6 0.00 dB -7.95 dB 5:44 03-Back Door Man
DR7 0.00 dB -8.53 dB 5:06 04-My Bad Boy
DR7 0.00 dB -7.45 dB 4:46 05-Mambo for Albert
DR10 0.00 dB -12.42 dB 3:21 06-Ax Sweet Mama
DR8 0.00 dB -8.78 dB 3:37 07-Yank Told Me
DR6 0.00 dB -7.69 dB 3:53 08-Hear Me Sing Like Elmore James
DR7 0.00 dB -8.49 dB 4:19 09-Iґm Gonna Miss You Like the Devil
DR7 0.00 dB -8.11 dB 2:43 10-Hate to See You Go
DR6 0.00 dB -7.06 dB 3:02 11-I Got Tattooed
DR6 0.00 dB -7.80 dB 6:28 12-Diddley Widdley
DR11 0.00 dB -14.09 dB 2:44 13-Come On In My Kitchen
------

Number of tracks: 13
Official DR value: DR8

Samplerate: 44100 Hz
Channels: 2
Bits per sample: 16
Bitrate: 912 kbps
Codec: FLAC

[CUETools log; Date: 27.05.2015 2:24:33; Version: 2.1.5]
[CTDB TOCID: 08G4E58YOthVQFq4iZo6gezHRnI-] found.
Track | CTDB Status
1 | (3/3) Accurately ripped
2 | (3/3) Accurately ripped
3 | (3/3) Accurately ripped
4 | (3/3) Accurately ripped
5 | (3/3) Accurately ripped
6 | (3/3) Accurately ripped
7 | (3/3) Accurately ripped
8 | (3/3) Accurately ripped
9 | (3/3) Accurately ripped
10 | (3/3) Accurately ripped
11 | (3/3) Accurately ripped
12 | (3/3) Accurately ripped
13 | (3/3) Accurately ripped
[AccurateRip ID: 001891f6-00f71973-c30bff0d] found.
Track [ CRC | V2 ] Status
01 [7be265f6|c4215c2f] (3+0/5) Accurately ripped
02 c36d1c4|cd6ca02b (4+0/6) Accurately ripped
03 [ad6432ae|cd5aaf22] (3+0/5) Accurately ripped
04 [36b06833|6797b230] (4+0/6) Accurately ripped
05 [2d40ad94|b4ad2c24] (3+0/5) Accurately ripped
06 [1661f47e|82b1cafd] (3+0/5) Accurately ripped
07 [0bbe4c2b|2946a020] (3+0/5) Accurately ripped
08 [4f107fcc|925610ad] (4+0/6) Accurately ripped
09 [fb1d91d0|6dda6502] (3+0/5) Accurately ripped
10 [3e222263|8d7dd6eb] (3+0/5) Accurately ripped
11 [94f88342|5ebfd14e] (3+0/5) Accurately ripped
12 [444b40dc|875bf244] (3+0/5) Accurately ripped
13 [acf5c3ca|ee0b8d12] (3+0/5) Accurately ripped
Offsetted by -664:
01 [6e8635f6] (0/5) No match (V2 was not tested)
02 [0cbd1b54] (0/6) No match (V2 was not tested)
03 [c4064b26] (0/5) No match (V2 was not tested)
04 [f0ee90ab] (0/6) No match (V2 was not tested)
05 [430f0e04] (0/5) No match (V2 was not tested)
06 [fb86d646] (0/5) No match (V2 was not tested)
07 [541bba6b] (0/5) No match (V2 was not tested)
08 [cff31d03] (0/6) No match (V2 was not tested)
09 [234d9ac9] (0/5) No match (V2 was not tested)
10 [11cd9633] (0/5) No match (V2 was not tested)
11 [25b80f3a] (0/5) No match (V2 was not tested)
12 [2018cc7c] (0/5) No match (V2 was not tested)
13 [f3560402] (0/5) No match (V2 was not tested)
Offsetted by -122:
01 [f7e331f6] (0/5) No match (V2 was not tested)
02 [e84f7e20] (0/6) No match (V2 was not tested)
03 [968fdc30] (0/5) No match (V2 was not tested)
04 [ec18cdb5] (0/6) No match (V2 was not tested)
05 [e0354eb8] (0/5) No match (V2 was not tested)
06 [adfa776c] (0/5) No match (V2 was not tested)
07 [0d814b9b] (0/5) No match (V2 was not tested)
08 [83a521f0] (0/6) No match (V2 was not tested)
09 [e6131e70] (0/5) No match (V2 was not tested)
10 [1e15af2f] (0/5) No match (V2 was not tested)
11 [02d7d9e4] (0/5) No match (V2 was not tested)
12 [5e076174] (0/5) No match (V2 was not tested)
13 [9ee7105c] (0/5) No match (V2 was not tested)
Offsetted by -86:
01 [48cdf9f6] (0/5) No match (V2 was not tested)
02 [f0483648] (0/6) No match (V2 was not tested)
03 [90b5563c] (0/5) No match (V2 was not tested)
04 [d7eaafc1] (0/6) No match (V2 was not tested)
05 [71b92790] (0/5) No match (V2 was not tested)
06 [63de4000] (0/5) No match (V2 was not tested)
07 [c4cd003b] (0/5) No match (V2 was not tested)
08 [6ad2128e] (0/6) No match (V2 was not tested)
09 [58385e8a] (0/5) No match (V2 was not tested)
10 [7b79e1f7] (0/5) No match (V2 was not tested)
11 [1095f2b0] (0/5) No match (V2 was not tested)
12 [cbf17104] (0/5) No match (V2 was not tested)
13 [9675e4c8] (0/5) No match (V2 was not tested)

Track Peak [ CRC32 ] [W/O NULL] [ LOG ]
-- 100,0 [40E38A29] [7144CE77] CRC32
01 100,0 [F69B3368] [A1FE9113]
02 100,0 [A9372621] [9EA80D61]
03 100,0 [E7FEFE54] [0DB228FC]
04 100,0 [D3C941CB] A67ACBF
05 100,0 [99C1895C] [3AD8E6F5]
06 100,0 [3D642EA1] [FCCBD500]
07 100,0 [7AC33CC9] [5A485D97]
08 100,0 [E0E3D283] [FEA5A5EA]
09 100,0 [3156E11A] [D1396E63]
10 100,0 [8A4F9C58] [6639B256]
11 100,0 [73C31C7C] [0B486A9E]
12 100,0 9FE7E95 [FED519CF]
13 100,0 25E5CCF [711BFE7F]

Ron Hacker And The Hacksaws - Back Door Man (2000)


DOWNLOAD:
Buy Premium From My Links To Get Resumable Support & Max Speed & To Support Me


Links are Interchangeable - No Password

Direct Download

Tags: Hacker, Hacksaws

Ron Hacker And The Hacksaws - Back Door Man (2000) Download via Hotfile Rapidshare Fileserve Megaupload & FileSonic, Ron Hacker And The Hacksaws - Back Door Man (2000) free torrent downloads included crack, serial, keygen.


Attention!Information

Members of Guest cannot leave comments.