Klaus Schulze - Moonlake (2005)

Download Now

Klaus Schulze - Moonlake (2005)

Klaus Schulze - Moonlake (2005)
EAC Rip | FLAC (image+.cue+log) - 466 MB | MP3 CBR 320 kbps (LAME 3.93) - 180 MB | Covers (5 MB) included
Genre: Electronic, Berlin School | RAR 3% Rec. | Label: SPV/Synthetic Symphony (SPV 63882 CD)

"Klaus Schulze is a founding member of Tangerine Dream and Ash Ra Tempel, two seminal bands in the evolution of synthesizer-based electronic music. The title "Moonlake" refers to Schulze's love of the Austrian Moonlake and the monumental fascination radiated by this lake and its surrounding landscape. All of this is perfectly reflected in the intensity and power of this album. "Moonlake" is nevertheless a typical Klaus Schulze album, one that in the words of Schulze "unites tradition and vision". There is a noticeable focus on percussion on "Moonlake", which hasn't been found on Schulze's albums for some time. While rhythm was often used as an element to supplement the music on his earlier albums, it takes on a more dominant role on "Moonlake"."

Tracklist:
01. Playmate in Paradise
02. Artemis in Jubileo
03. Same Thoughts Lion
04. Mephisto

Total time: 01:14:04

Exact Audio Copy V0.99 prebeta 3 from 28. July 2007

Отчёт EAC об извлечении, выполненном 24. декабря 2007, 23:39

Klaus Schulze / Moonlake

Дисковод: Optiarc DVD RW AD-7173A Adapter: 0 ID: 0

Режим чтения : Достоверность
Использование точного потока : Да
Отключение кэша аудио : Да
Использование указателей C2 : Нет

Коррекция смещения при чтении : 48
Способность читать области Lead-in и Lead-out : Нет
Заполнение пропущенных сэмплов тишиной : Да
Удаление блоков с тишиной в начале и конце : Нет
При вычислениях CRC использовались нулевые сэмплы : Да
Интерфейс : Встроенный Win32-интерфейс для Win NT/2000

Выходной формат : Пользовательский кодировщик
Выбранный битрейт : 1024 kBit/s
Качество : Высокий
Добавление ID3-тэга : Нет
Утилита сжатия : C:\Program Files\FLAC\flac.exe
Дополнительные параметры : -T "artist=%a" -T "title=%t" -T "album=%g" -T "date=%y" -T "tracknumber=%n" -T "genre=%m" -5 %s

TOC извлечённого CD Трек | Старт | Длительность | Начальный сектор | Конечный сектор

1 | 0:00.00 | 30:09.15 | 0 | 135689
2 | 30:09.15 | 17:51.29 | 135690 | 216043
3 | 48:00.44 | 10:40.27 | 216044 | 264070
4 | 58:40.71 | 15:23.39 | 264071 | 333334

Характеристики диапазона извлечения и сообщения об ошибках

Выбранный диапазон Имя файла C:\Documents and Settings\Serge\Мои документы\Моя музыка\Klaus Schulze - Moonlake.wav Пиковый уровень 100.0 %
Качество диапазона 99.9 %
CRC копии 9140A392
Копирование... OK

Ошибок не произошло

Конец отчёта

[CUETools log; Date: 18.05.2015 2:59:22; Version: 2.1.4]
[CTDB TOCID: 8wn6hIEEmXWmEstC5QqfVZKOc54-] found.
Track | CTDB Status
1 | (29/30) Accurately ripped
2 | (28/30) Accurately ripped
3 | (29/30) Accurately ripped
4 | (29/30) Accurately ripped
[AccurateRip ID: 000e7b94-00379468-2d115c04] found.
Track [ CRC | V2 ] Status
01 [aae44186|1a9f30f6] (25+22/50) Accurately ripped
02 [da26918e|bd4479d4] (24+20/47) Accurately ripped
03 [8ffcb780|2596d19e] (25+22/50) Accurately ripped
04 [2bdc92d3|f76e825b] (25+22/50) Accurately ripped
Offsetted by -730:
01 [c0e1b2e7] (03/50) Accurately ripped
02 [749f8c54] (03/47) Accurately ripped
03 [7a46edae] (03/50) Accurately ripped
04 [4970dc69] (03/50) Accurately ripped
Offsetted by -676:
01 [7a346dcd] (00/50) No match (V2 was not tested)
02 [caafd92a] (00/47) No match (V2 was not tested)
03 [2000e9ac] (00/50) No match (V2 was not tested)
04 [e50f9f8f] (00/50) No match (V2 was not tested)

Track Peak [ CRC32 ] [W/O NULL] [ LOG ]
-- 100,0 [9140A392] [303B0DFF] CRC32
01 99,9 [42AA0262] [8E05A53D]
02 88,0 [4CBECC76] [C1203A83]
03 100,0 0D7FDDD [A94D790C]
04 100,0 [255ED5E5] [6BD7CBC4]

Thanks to pnevmaslon
DOWNLOAD LINKS:
Buy Premium To Support Me & Get Resumable Support & Max Speed


Links are Interchangeable - No Password - Single Extraction

Direct Download

Tags: Schulze, Moonlake

Klaus Schulze - Moonlake (2005) Download via Hotfile Rapidshare Fileserve Megaupload & FileSonic, Klaus Schulze - Moonlake (2005) free torrent downloads included crack, serial, keygen.


Attention!Information

Members of Guest cannot leave comments.