Damrau, Beczala, Mariotti, Met Opera - Verdi: Rigoletto (2013)

Download Now

Damrau, Beczala, Mariotti, Met Opera - Verdi: Rigoletto (2013)

Damrau, Beczala, Mariotti, Met Opera - Verdi: Rigoletto (2013)
Classical | Bluray-rip 720p | Audio: Italian | Subtitles: ENglish | Run time: 136 mins | 6.56 GB
AVC, MKV 1280x720 (16:9) 29.97fps, 5365kbps | DTS, 48000Hz, 6ch, 1510kbps

"The sought-after lyric tenor Piotr Beczala, is the womanizing Duke in this new production of Verdi's Rigoletto from the Metropolitan Opera. Željko Luèiæ sings the title role and Diana Damrau sings Rigoletto's daughter Gilda. This DVD and Blu-ray release appears in the Verdi year 2013, as music lovers around the world celebrate the bicentenary of the birth of Italy's beloved composer."

"Reviews: "Piotr Beczala was a perfect duke, singing with style and the smiling assurance of a guy who knows he looks good in a dinner jacket." (Bloomberg.com)

"Piotr Beczala as the Duke was a breezy, sleazy leader of the Rat Pack, a Frank Sinatra-type lurching from bender to hookup. His arias were winning and convincing."(Washington Times)

[Piotr Beczala is] one of today's most exciting young singers...Tall, trim and handsome, with a Hollywood smile, he also emits some of the most beautiful sounds to be heard on the current opera stage." (Opera News)

One of the greatest tenors in the world, Piotr Beczala, is the womanizing Duke in this new production of Verdi's Rigoletto from the Metropolitan Opera.

Zeljko Lucic sings the title role and Diana Damrau sings Rigolettos daughter Gilda. This DVD release appears in the Verdi year 2013, as music lovers around the world celebrate the bicentenary of the birth of Italy's beloved composer.

Director Michael Mayer has placed his new production of Verdi's towering tragedy in Las Vegas in 1960 an ideal setting for this eternal conflict of depravity and innocence."


Tracklisting:

1. Rigoletto by Giuseppe Verdi
Performer: Zeljko Lucic (Baritone), Piotr Beczala (Tenor), Diana Damrau (Soprano),
Stefan Kocán (Bass), Oksana Volkova (Mezzo Soprano)
Conductor: Michele Mariotti
Orchestra/Ensemble: Metropolitan Opera Chorus, Metropolitan Opera Orchestra
Period: Romantic
Written: 1851; Italy

Gilda - Diana Damrau,
Rigoletto - Zeljko Lučić,
Il Duca di Mantova - Piotr Beczala,
Sparafucile - Stefan Kocán,
Maddalena - Oksana Volkova,
Giovanna - Maria Zifchak,
Monterone - Robert Pomakov,
Marullo - Jeff Mattsey,
Borsa - Alexander Lewis,
Conte Ceprano - David Crawford.

Screeshots

Damrau, Beczala, Mariotti, Met Opera - Verdi: Rigoletto (2013)



General
UniqueID : 187357599469524772381332939692415240055 (0x8CF3C2D847F2506D8DFF03AEB05DC777)
Complete name : C:\Tor\Verdi - Rigoletto (MetOpera, 2013).mkv
Format : Matroska
File size: 6.56 GiB
Duration : 2h 16mn
Overall bit rate : 6 877 Kbps
Encoded date : UTC 2013-08-16 17:16:51
Writing application : mkvmerge v6.3.0 ('You can't stop me!') built on Jun 28 2013 20:09:41
Writing library : libebml v1.3.0 + libmatroska v1.4.0

Video
ID
: 1
Format : AVC
Format/Info

: Advanced Video Codec
Format profile : [email protected]
Format settings, CABAC : Yes
Format settings, ReFrames : 5 frames
Codec ID : V_MPEG4/ISO/AVC
Duration : 2h 16mn
Bit rate : 5 365 Kbps
Width : 1 280 pixels
Height : 720 pixels
Display aspect ratio : 16:9
Frame rate

: 29.970 fps
Color space

: YUV
Chroma subsampling : 4:2:0
Bit depth: 8 bits
Scan type: Progressive
Bits/(Pixel*Frame) : 0.194
Stream size

: 4.99 GiB (76%)
Writing library : x264 core 135 r2345 f0c1c53
Encoding settings : cabac=1 / ref=5 / deblock=1:0:0 / analyse=0x3:0x133 / me=umh / subme=8 / psy=1 / psy_rd=1.00:0.00 / mixed_ref=1 / me_range=16 / chroma_me=1 / trellis=1 / 8x8dct=1 / cqm=0 / deadzone=21,11 / fast_pskip=0 / chroma_qp_offset=-2 / threads=18 / lookahead_threads=3 / sliced_threads=0 / nr=0 / decimate=1 / interlaced=0 / bluray_compat=0 / constrained_intra=0 / bframes=3 / b_pyramid=2 / b_adapt=1 / b_bias=0 / direct=1 / weightb=1 / open_gop=0 / weightp=2 / keyint=250 / keyint_min=25 / scenecut=40 / intra_refresh=0 / rc_lookahead=40 / rc=2pass / mbtree=1 / bitrate=5365 / ratetol=1.0 / qcomp=0.60 / qpmin=0 / qpmax=69 / qpstep=4 / cplxblur=20.0 / qblur=0.5 / ip_ratio=1.40 / aq=1:1.00
Language : English

Audio
ID
: 2
Format : DTS
Format/Info

: Digital Theater Systems
Codec ID : A_DTS
Duration : 2h 16mn
Bit rate mode : Constant
Bit rate : 1 510 Kbps
Channel(s)

: 6 channels
Channel positions : Front: L C R, Side: L R, LFE
Sampling rate : 48.0 KHz
Bit depth: 24 bits
Compression mode : Lossy
Stream size

: 1.44 GiB (22%)
Title : Italian
Language : Italian

Text
ID
: 3
Format : UTF-8
Codec ID : S_TEXT/UTF8
Codec ID/Info : UTF-8 Plain Text
Title : English
Language : English

Thanks to the original releaser
Download Links:
(Premium Recommended)

Rapidgator.net:
do2bk.D.B.M.M.O.V.R.2013.part01.rar.html
do2bk.D.B.M.M.O.V.R.2013.part02.rar.html
do2bk.D.B.M.M.O.V.R.2013.part03.rar.html
do2bk.D.B.M.M.O.V.R.2013.part04.rar.html
do2bk.D.B.M.M.O.V.R.2013.part05.rar.html
do2bk.D.B.M.M.O.V.R.2013.part06.rar.html
do2bk.D.B.M.M.O.V.R.2013.part07.rar.html
do2bk.D.B.M.M.O.V.R.2013.part08.rar.html
do2bk.D.B.M.M.O.V.R.2013.part09.rar.html
do2bk.D.B.M.M.O.V.R.2013.part10.rar.html

Nitroflare.com
do2bk.D.B.M.M.O.V.R.2013.part01.rar
do2bk.D.B.M.M.O.V.R.2013.part02.rar
do2bk.D.B.M.M.O.V.R.2013.part03.rar
do2bk.D.B.M.M.O.V.R.2013.part04.rar
do2bk.D.B.M.M.O.V.R.2013.part05.rar
do2bk.D.B.M.M.O.V.R.2013.part06.rar
do2bk.D.B.M.M.O.V.R.2013.part07.rar
do2bk.D.B.M.M.O.V.R.2013.part08.rar
do2bk.D.B.M.M.O.V.R.2013.part09.rar
do2bk.D.B.M.M.O.V.R.2013.part10.rar

Uploadable.ch:
do2bk.D.B.M.M.O.V.R.2013.part01.rar
do2bk.D.B.M.M.O.V.R.2013.part02.rar
do2bk.D.B.M.M.O.V.R.2013.part03.rar
do2bk.D.B.M.M.O.V.R.2013.part04.rar
do2bk.D.B.M.M.O.V.R.2013.part05.rar
do2bk.D.B.M.M.O.V.R.2013.part06.rar
do2bk.D.B.M.M.O.V.R.2013.part07.rar
do2bk.D.B.M.M.O.V.R.2013.part08.rar
do2bk.D.B.M.M.O.V.R.2013.part09.rar
do2bk.D.B.M.M.O.V.R.2013.part10.rar

Uploaded.net:
do2bk.D.B.M.M.O.V.R.2013.part01.rar
do2bk.D.B.M.M.O.V.R.2013.part02.rar
do2bk.D.B.M.M.O.V.R.2013.part03.rar
do2bk.D.B.M.M.O.V.R.2013.part04.rar
do2bk.D.B.M.M.O.V.R.2013.part05.rar
do2bk.D.B.M.M.O.V.R.2013.part06.rar
do2bk.D.B.M.M.O.V.R.2013.part07.rar
do2bk.D.B.M.M.O.V.R.2013.part08.rar
do2bk.D.B.M.M.O.V.R.2013.part09.rar
do2bk.D.B.M.M.O.V.R.2013.part10.rar

All above links are interchangable. No password

Direct Download

Tags: Damrau, Beczala, Mariotti, Rigoletto

Damrau, Beczala, Mariotti, Met Opera - Verdi: Rigoletto (2013) Download via Hotfile Rapidshare Fileserve Megaupload & FileSonic, Damrau, Beczala, Mariotti, Met Opera - Verdi: Rigoletto (2013) free torrent downloads included crack, serial, keygen.


Attention!Information

Members of Guest cannot leave comments.