Weather Report - I Sing The Body Electric (1972) {2014 Japan Jazz Collection 1000 Columbia-RCA Series}

Download Now


Weather Report - I Sing The Body Electric (1972) {2014 Japan Jazz Collection 1000 Columbia-RCA Series}
Weather Report - I Sing The Body Electric (1972) {2014 Japan Jazz Collection 1000 Columbia-RCA Series}
EAC rip (secure mode) | FLAC (tracks)+CUE+LOG -> 298 Mb | MP3 @320 -> 113 Mb
Full Artwork @ 600 dpi (png) -> 211 Mb | 5% repair rar
© 2014 Columbia / Sony Music Japan | SICP 4227
Jazz / Fusion

"Reissue with DSD remastering. Comes with liner notes. Beautiful early work from Weather Report - one of the finest statements ever uttered by group, and a set that's got a bit more soul and warmth than their first album! The lineup's changed slightly at this point - still Wayne Shorter on reeds, Joe Zawinul on keyboards, and Miroslav Vitous on bass - but Eric Gravatt has replaced Alphonse Mouzon on drums, and Dom Um Romao's taken over for Airto on percussion - giving the record an even earthier feel at times!"

Weather Report - I Sing The Body Electric (1972) {2014 Japan Jazz Collection 1000 Columbia-RCA Series}


Personnel:
Josef Zawinul - electric and acoustic keyboard
Wayne Shorter - reeds
Miroslav Vitous - bass
Eric Gravatt - drums

Weather Report - I Sing The Body Electric (1972) {2014 Japan Jazz Collection 1000 Columbia-RCA Series}


tracklist:
01 - Unknown Soldier
02 - The Moors
03 - Crystal
04 - Second Sunday in August
05 - Medley- Vertical Invader - T.H. - Dr.Honoris Causa
06 - Surucucu
07 - Directions

Exact Audio Copy V1.0 beta 4 from 7. December 2014

EAC extraction logfile from 29. May 2015, 11:57

Weather Report / I Sing The Body Electric

Used drive : ATAPI iHAS124 B Adapter: 1 ID: 0

Read mode : Secure
Utilize accurate stream : Yes
Defeat audio cache : Yes
Make use of C2 pointers : No

Read offset correction

: 6
Overread into Lead-In and Lead-Out : No
Fill up missing offset samples with silence : Yes
Delete leading and trailing silent blocks : No
Null samples used in CRC calculations : Yes
Used interface
: Native Win32 interface for Win NT & 2000
Gap handling
: Appended to previous track

Used output format : User Defined Encoder
Selected bitrate : 1024 kBit/s
Quality : High
Add ID3 tag : No
Command line compressor : C:\Program Files (x86)\FLAC Frontend\tools\flac.exe
Additional command line options : -8 -V -T "ARTIST=%artist%" -T "TITLE=%title%" -T "ALBUM=%albumtitle%" -T "DATE=%year%" -T "TRACKNUMBER=%tracknr%" -T "TOTALTRACKS=%numtracks%" -T "GENRE=%genre%" -T "ALBUMARTIST=%albumartist%" -T "ALBUM ARTIST=%albumartist%" -T "COMMENT=EAC Secure Mode, Test & Copy, AccurateRip, FLAC -8" %source%

TOC of the extracted CD Track | Start | Length | Start sector | End sector
1 | 0:00.00 | 8:00.65 | 0 | 36064 2 | 8:00.65 | 4:45.26 | 36065 | 57465 3 | 12:46.16 | 7:26.21 | 57466 | 90936 4 | 20:12.37 | 4:13.54 | 90937 | 109965 5 | 24:26.16 | 10:42.26 | 109966 | 158141 6 | 35:08.42 | 7:42.62 | 158142 | 192853 7 | 42:51.29 | 4:38.05 | 192854 | 213708

Track 1 Filename D:\_EAC\Weather Report - I Sing The Body Electric (1972) [FLAC] {2014 Japan}\01 - Unknown Soldier.wav Pre-gap length 0:00:02.00 Peak level 91.6 %
Extraction speed 3.9 X
Track quality 100.0 %
Test CRC E08A16DC
Copy CRC E08A16DC
Accurately ripped (confidence 4) [655F7326] (AR v2)
Copy OK

Track 2 Filename D:\_EAC\Weather Report - I Sing The Body Electric (1972) [FLAC] {2014 Japan}\02 - The Moors.wav Pre-gap length 0:00:02.08 Peak level 91.1 %
Extraction speed 4.3 X
Track quality 100.0 %
Test CRC BCDC6031
Copy CRC BCDC6031
Accurately ripped (confidence 4) [4FB4D1F6] (AR v2)
Copy OK

Track 3 Filename D:\_EAC\Weather Report - I Sing The Body Electric (1972) [FLAC] {2014 Japan}\03 - Crystal.wav Pre-gap length 0:00:01.40 Peak level 73.6 %
Extraction speed 5.0 X
Track quality 100.0 %
Test CRC 8DBA3647
Copy CRC 8DBA3647
Accurately ripped (confidence 4) [674F554E] (AR v2)
Copy OK

Track 4 Filename D:\_EAC\Weather Report - I Sing The Body Electric (1972) [FLAC] {2014 Japan}\04 - Second Sunday in August.wav Pre-gap length 0:00:01.25 Peak level 87.2 %
Extraction speed 5.1 X
Track quality 100.0 %
Test CRC 4C5D6B20
Copy CRC 4C5D6B20
Accurately ripped (confidence 4) [45247DFA] (AR v2)
Copy OK

Track 5 Filename D:\_EAC\Weather Report - I Sing The Body Electric (1972) [FLAC] {2014 Japan}\05 - Medley- Vertical Invader - T.H. - Dr.Honoris Causa.wav Pre-gap length 0:00:01.31 Peak level 100.0 %
Extraction speed 6.1 X
Track quality 100.0 %
Test CRC 24692C63
Copy CRC 24692C63
Accurately ripped (confidence 4) [03AAD14E] (AR v2)
Copy OK

Track 6 Filename D:\_EAC\Weather Report - I Sing The Body Electric (1972) [FLAC] {2014 Japan}\06 - Surucucu.wav Peak level 98.9 %
Extraction speed 5.7 X
Track quality 99.9 %
Test CRC 41217977
Copy CRC 41217977
Accurately ripped (confidence 4) [7AF7CE06] (AR v2)
Copy OK

Track 7 Filename D:\_EAC\Weather Report - I Sing The Body Electric (1972) [FLAC] {2014 Japan}\07 - Directions.wav Peak level 94.2 %
Extraction speed 6.5 X
Track quality 100.0 %
Test CRC D8A42113
Copy CRC D8A42113
Accurately ripped (confidence 4) [806C19BF] (AR v2)
Copy OK

All tracks accurately ripped

No errors occurred

End of status report

==== Log checksum B40B4C08C89A1F55BFFA5D8EEE1BAD146D78AF56941D46D6C953E8050EE1370E ====

Weather Report - I Sing The Body Electric (1972) {2014 Japan Jazz Collection 1000 Columbia-RCA Series}

Weather Report - I Sing The Body Electric (1972) {2014 Japan Jazz Collection 1000 Columbia-RCA Series}

DOWNLOAD LINKS
(Premium Recommended)


Links are Interchangeable - No Password - Single Extraction

Direct Download

Tags: Weather, Report, Electric, Collection, Columbia, Series

Weather Report - I Sing The Body Electric (1972) {2014 Japan Jazz Collection 1000 Columbia-RCA Series} Download via Hotfile Rapidshare Fileserve Megaupload & FileSonic, Weather Report - I Sing The Body Electric (1972) {2014 Japan Jazz Collection 1000 Columbia-RCA Series} free torrent downloads included crack, serial, keygen.


Attention!Information

Members of Guest cannot leave comments.