Wagner - Das Rheingold - Solti ( 96 Khz. 24 Bit Remastering - 2008 ) Re Up

Download Now

Wagner - Das Rheingold - Solti ( 96 Khz. 24 Bit Remastering - 2008 ) Re Up

Wagner - Das Rheingold - Solti (2008 )
EAC Rip | FLAC-TRACKS+CUE+LOG | 2CD | Scans | 145 Min. | 726 MB
Opera / LP´s Originally Released in 1959 / 24 Bit / 96 Khz Remastering
Label : Decca The Original Series / Catalogue 4780382

"DAS RHEINGOLD, the prelude to Wagner's drama DER RING DES NIBELUNGEN, is the shortest work in the series, and at times it can be forgotten. Of the four pieces that make up the Ring Cycle, it probably would not be a stand alone opera, as the other three would be, and with the exception of "The Entry of the gods into Valhalla" it does not have the memorable highlights of the other three longer works of the cycle."

Wagner - Das Rheingold - Solti ( 96 Khz. 24 Bit Remastering - 2008 ) Re Up

Yet as listeners discover this opera, the richness of this gem becomes apparent. The story is told through the music, and even without knowing the Description, one can sense from the music the blissful state of the Rhine maidens and how the peace is destroyed through greed which will culminate in the final scenes of GOTTERDAMMERUNG. The opera itself contains many of the leitmotifs that will continue throughout the remaining three pieces.
Many critics as well as other Amazon reviewers believe that this may be the best recording of DAS RHEINGOLD, or at least the greatest stereo recording of the work. Two reasons are given as a basis: the solid performance of the singers and the mastery of Sir Georg Solti. Solti made this recording in the late 1950's which was perhaps one of the greatest moments in history to assemble a cast to record any Wagner opera, and Solti selected the best in a cast that includes George London and Kirsten Flagstad. This recording is magnificent, and the cast works together as an ensemble, which is essential in Wagner. While some opera recordings can still be adequate with uneven performers, for Wagner it can be devastating. All one needs to do is look at many of the reviews of the Solti WALKURE, which has some captivating moments, but also weak moments that for some (though not all, I love that recording too) ruins the entire work. For some the orchestra is a bit too heavy, a criticism leveled against Solti on many occasions, but overall the orchestra and singers compliment each other well. The only flaw is a few of the non orchestral sound effects that can be a bit jarring at times (some bells and female screams) but at the time the recording was made, they were rather innovative. After listening to the recording a few times, the sound effects are barely noticeable .]

Recording Location : Sofiensaal , Vienna , September / October1958
Producer : John Culshaw
Recording Engineer : Gordon Parry

Track Listing :

1. Vorspiel - Wiener Philharmoniker, Georg Solti
2. "Weia! Waga! Woge du Welle!" - Hetty Plümacher, Oda Balsborg, Ira Malaniuk, Gustav Neidlinger, Wiener Philharmoniker, Georg Solti
3. "Garstig glatter glitschriger Glimmer!" - Hetty Plümacher, Oda Balsborg, Ira Malaniuk, Gustav Neidlinger, Wiener Philharmoniker, Georg Solti
4. "Wallala! Lalaleia! Leialalei!" - Hetty Plümacher, Oda Balsborg, Ira Malaniuk, Gustav Neidlinger, Wiener Philharmoniker, Georg Solti
5. "Lugt, Schwestern! Die Weckerin lacht in den Grund" - Hetty Plümacher, Oda Balsborg, Ira Malaniuk, Gustav Neidlinger, Wiener Philharmoniker, Georg Solti
6. "Der Welt Erbe Gewänn' ich zu eigen durch dich?" - Hetty Plümacher, Oda Balsborg, Ira Malaniuk, Gustav Neidlinger, Wiener Philharmoniker, Georg Solti
7. "Wotan! Gemahl! Erwache!" - Kirsten Flagstad, George London, Claire Watson, Wiener Philharmoniker, Georg Solti
8. "Sanft schloß Schlaf dein Aug'" - Kurt Böhme, Walter Kreppel, George London, Claire Watson, Wiener Philharmoniker, Georg Solti
9. "Zu mir, Freia!" - Waldemar Kmentt, Eberhard Wächter, Kurt Böhme, Walter Kreppel, George London, Claire Watson, Kirsten Flagstad, Wiener Philharmoniker, Georg Solti
10. "Endlich, Loge!" - Eberhard Wächter, George London, Kurt Böhme, Set Svanholm, Kirsten Flagstad, Waldemar Kmentt, Walter Kreppel, Wiener Philharmoniker, Georg Solti
11. "Immer ist Undank Loges Lohn!" - Set Svanholm, Kurt Böhme, George London, Walter Kreppel, Kirsten Flagstad, Wiener Philharmoniker, Georg Solti
12. "Ein Runenzauber zwingt das Gold zum Reif" - Eberhard Wächter, Set Svanholm, George London, Waldemar Kmentt, Kirsten Flagstad, Kurt Böhme, Wiener Philharmoniker, Georg Solti
13. "Hör', Wotan, der Harrenden Wort!" - Kurt Böhme, George London, Walter Kreppel, Claire Watson, Waldemar Kmentt, Set Svanholm, Wiener Philharmoniker, Georg Solti
14. "Was sinnt nun Wotan so wild?" - Set Svanholm, Kirsten Flagstad, Eberhard Wächter, Waldemar Kmentt, Wiener Philharmoniker, Georg Solti
15. "Auf, Loge, hinab zu mir!...Hehe! Hehe!" - George London, Set Svanholm, Gustav Neidlinger, Waldemar Kmentt, Kirsten Flagstad, Eberhard Wächter, Paul Kuentz, Wiener Philharmoniker, Georg Solti

1. "Schau, du Schelm" - Gustav Neidlinger, Paul Kuentz, Wiener Philharmoniker, Georg Solti
2. "Nibelheim hier" - Set Svanholm, Paul Kuentz, George London, Wiener Philharmoniker, Georg Solti
3. "Nehmt euch in acht!" - Paul Kuentz, George London, Gustav Neidlinger, Set Svanholm, Wiener Philharmoniker, Georg Solti
4. "Vergeh, frevelnder Gauch!" - George London, Gustav Neidlinger, Set Svanholm, Wiener Philharmoniker, Georg Solti
5. "Ohe! Ohe! Schreckliche Schlange" - Set Svanholm, George London, Gustav Neidlinger, Wiener Philharmoniker, Georg Solti
6. "Da, Vetter, sitze du fest!" - Set Svanholm, Gustav Neidlinger, George London, Wiener Philharmoniker, Georg Solti
7. "Gezahlt hab' ich; nun lasst mich zieh'n!" - Gustav Neidlinger, Set Svanholm, George London, Wiener Philharmoniker, Georg Solti
8. "Bin ich nun frei?" - Gustav Neidlinger, Set Svanholm, George London, Wiener Philharmoniker, Georg Solti
9. "Fasolt und Fafner nahen von fern" - Set Svanholm, Eberhard Wächter, Waldemar Kmentt, Kirsten Flagstad, Walter Kreppel, Wiener Philharmoniker, Georg Solti
10. "Gepflanzt sind die Pfähle" - Kurt Böhme, George London, Eberhard Wächter, Set Svanholm, Waldemar Kmentt, Claire Watson, Kirsten Flagstad, Wiener Philharmoniker, Georg Solti
11. "Weiche, Wotan, weiche!" - Jean Madeira, George London, Kirsten Flagstad, Waldemar Kmentt, Wiener Philharmoniker, Georg Solti
12. "Hört, ihr Riesen!" - Claire Watson, Eberhard Wächter, George London, Kurt Böhme, Walter Kreppel, Set Svanholm, Kirsten Flagstad, Wiener Philharmoniker, Georg Solti
13. "Schwüles Gedünst schwebt in der Luft" - Eberhard Wächter, Waldemar Kmentt, Wiener Philharmoniker, Georg Solti
14. "Abendlich strahlt der Sonne Auge" - George London, Kirsten Flagstad, Set Svanholm, Wiener Philharmoniker, Georg Solti
15. "Rheingold! Rheingold! Reines Gold!" - Hetty Plümacher, George London, Set Svanholm, Oda Balsborg, Ira Malaniuk

Cast :

Wotan......George London
Fricka......Kirsten Flagstad
Freia......Claire Watson
Froh......Waldemar Kmentt
Donner......Eberhard Wächter
Loge......Set Svanholm
Mime......Paul Kuen
Erda......Jean Madeira
Alberich......Gustav Neidlinger
Fasolt......Walter Kreppel
Fafner......Kurt Böhme
Woglinde......Oda Balsborg
Wellgunde......Hetty Plümacher
Flosshilde......Ira Malaniuk

Wiener Philharmoniker
Georg Solti

Log Files :

CD 1

Exact Audio Copy V1.0 beta 3 from 29. August 2011

EAC extraction logfile from 15. July 2012, 18:31

Richard Wagner / Das Rheingold - 96Khz. 24Bit CD1

Used drive : SONY DVD RW DRU-840A Adapter: 0 ID: 1

Read mode : Secure
Utilize accurate stream : Yes
Defeat audio cache : Yes
Make use of C2 pointers : No

Read offset correction

: 6
Overread into Lead-In and Lead-Out : No
Fill up missing offset samples with silence : Yes
Delete leading and trailing silent blocks : No
Null samples used in CRC calculations : Yes
Used interface
: Native Win32 interface for Win NT & 2000

Used output format : User Defined Encoder
Selected bitrate : 320 kBit/s
Quality : High
Add ID3 tag : No
Command line compressor : C:\Archivos de programa\Exact Audio Copy\FLAC\FLAC.EXE
Additional command line options : -6 -V -T "ARTIST=%artist%" -T "TITLE=%title%" -T "ALBUM=%albumtitle%" -T "DATE=%year%" -T "TRACKNUMBER=%tracknr%" -T "GENRE=%genre%" -T "COMMENT=%comment%" -T "BAND=%albuminterpret%" -T "ALBUMARTIST=%albuminterpret%" -T "COMPOSER=%composer%" %haslyrics%--tag-from-file=LYRICS="%lyricsfile%"%haslyrics% -T "DISCNUMBER=%cdnumber%" -T "TOTALDISCS=%totalcds%" -T "TOTALTRACKS=%numtracks%" %hascover%--picture="%coverfile%"%hascover% %source% -o %dest%

TOC of the extracted CD Track | Start | Length | Start sector | End sector
1 | 0:00.00 | 4:13.10 | 0 | 18984 2 | 4:13.10 | 2:24.38 | 18985 | 29822 3 | 6:37.48 | 4:55.32 | 29823 | 51979 4 | 11:33.05 | 2:23.55 | 51980 | 62759 5 | 13:56.60 | 5:49.15 | 62760 | 88949 6 | 19:46.00 | 4:24.45 | 88950 | 108794 7 | 24:10.45 | 10:51.66 | 108795 | 157685 8 | 35:02.36 | 7:27.70 | 157686 | 191280 9 | 42:30.31 | 1:40.30 | 191281 | 198810
10 | 44:10.61 | 3:44.70 | 198811 | 215680
11 | 47:55.56 | 7:01.22 | 215681 | 247277
12 | 54:57.03 | 3:07.20 | 247278 | 261322
13 | 58:04.23 | 2:47.33 | 261323 | 273880
14 | 60:51.56 | 5:09.57 | 273881 | 297112
15 | 66:01.38 | 4:31.55 | 297113 | 317492

Range status and errors

Selected range Filename E:\MUSICA\Mi Música\Wagner-Solti-Das Rheingold 96Khz. 24Bit Remastering\CD1\Richard Wagner - Das Rheingold - 96Khz. 24Bit CD1.wav Peak level 92.6 %
Extraction speed 8.3 X
Range quality 100.0 %
Test CRC 5083B80E
Copy CRC 5083B80E
Copy OK

No errors occurred


AccurateRip summary

Track 1 not present in database
Track 2 not present in database
Track 3 not present in database
Track 4 not present in database
Track 5 not present in database
Track 6 not present in database
Track 7 not present in database
Track 8 not present in database
Track 9 not present in database
Track 10 not present in database
Track 11 not present in database
Track 12 not present in database
Track 13 not present in database
Track 14 not present in database
Track 15 not present in database

None of the tracks are present in the AccurateRip database

End of status report

==== Log checksum 9BD23DF786CEDA626CCB28B56BDFE02852C1955ECF2095BA0EB00CAD53B898E3 ====

--

Exact Audio Copy V1.0 beta 3 from 29. August 2011

EAC extraction logfile from 15. July 2012, 18:31

Richard Wagner / Das Rheingold - 96Khz. 24Bit CD1

Used drive : SONY DVD RW DRU-840A Adapter: 0 ID: 1

Read mode : Secure
Utilize accurate stream : Yes
Defeat audio cache : Yes
Make use of C2 pointers : No

Read offset correction

: 6
Overread into Lead-In and Lead-Out : No
Fill up missing offset samples with silence : Yes
Delete leading and trailing silent blocks : No
Null samples used in CRC calculations : Yes
Used interface
: Native Win32 interface for Win NT & 2000

Used output format : User Defined Encoder
Selected bitrate : 320 kBit/s
Quality : High
Add ID3 tag : No
Command line compressor : C:\Archivos de programa\Exact Audio Copy\FLAC\FLAC.EXE
Additional command line options : -6 -V -T "ARTIST=%artist%" -T "TITLE=%title%" -T "ALBUM=%albumtitle%" -T "DATE=%year%" -T "TRACKNUMBER=%tracknr%" -T "GENRE=%genre%" -T "COMMENT=%comment%" -T "BAND=%albuminterpret%" -T "ALBUMARTIST=%albuminterpret%" -T "COMPOSER=%composer%" %haslyrics%--tag-from-file=LYRICS="%lyricsfile%"%haslyrics% -T "DISCNUMBER=%cdnumber%" -T "TOTALDISCS=%totalcds%" -T "TOTALTRACKS=%numtracks%" %hascover%--picture="%coverfile%"%hascover% %source% -o %dest%

TOC of the extracted CD Track | Start | Length | Start sector | End sector
1 | 0:00.00 | 4:13.10 | 0 | 18984 2 | 4:13.10 | 2:24.38 | 18985 | 29822 3 | 6:37.48 | 4:55.32 | 29823 | 51979 4 | 11:33.05 | 2:23.55 | 51980 | 62759 5 | 13:56.60 | 5:49.15 | 62760 | 88949 6 | 19:46.00 | 4:24.45 | 88950 | 108794 7 | 24:10.45 | 10:51.66 | 108795 | 157685 8 | 35:02.36 | 7:27.70 | 157686 | 191280 9 | 42:30.31 | 1:40.30 | 191281 | 198810
10 | 44:10.61 | 3:44.70 | 198811 | 215680
11 | 47:55.56 | 7:01.22 | 215681 | 247277
12 | 54:57.03 | 3:07.20 | 247278 | 261322
13 | 58:04.23 | 2:47.33 | 261323 | 273880
14 | 60:51.56 | 5:09.57 | 273881 | 297112
15 | 66:01.38 | 4:31.55 | 297113 | 317492

Range status and errors

Selected range Filename E:\MUSICA\Mi Música\Wagner-Solti-Das Rheingold 96Khz. 24Bit Remastering\CD1\Richard Wagner - Das Rheingold - 96Khz. 24Bit CD1.wav Peak level 92.6 %
Extraction speed 8.3 X
Range quality 100.0 %
Test CRC 5083B80E
Copy CRC 5083B80E
Copy OK

No errors occurred


AccurateRip summary

Track 1 not present in database
Track 2 not present in database
Track 3 not present in database
Track 4 not present in database
Track 5 not present in database
Track 6 not present in database
Track 7 not present in database
Track 8 not present in database
Track 9 not present in database
Track 10 not present in database
Track 11 not present in database
Track 12 not present in database
Track 13 not present in database
Track 14 not present in database
Track 15 not present in database

None of the tracks are present in the AccurateRip database

End of status report

==== Log checksum 9BD23DF786CEDA626CCB28B56BDFE02852C1955ECF2095BA0EB00CAD53B898E3 ====

CD 2

Exact Audio Copy V1.0 beta 3 from 29. August 2011

EAC extraction logfile from 15. July 2012, 19:05

Richard Wagner / Das Rheingold 96Khz 24 Bit (disc 2)

Used drive : SONY DVD RW DRU-840A Adapter: 0 ID: 1

Read mode : Secure
Utilize accurate stream : Yes
Defeat audio cache : Yes
Make use of C2 pointers : No

Read offset correction

: 6
Overread into Lead-In and Lead-Out : No
Fill up missing offset samples with silence : Yes
Delete leading and trailing silent blocks : No
Null samples used in CRC calculations : Yes
Used interface
: Native Win32 interface for Win NT & 2000

Used output format : User Defined Encoder
Selected bitrate : 320 kBit/s
Quality : High
Add ID3 tag : No
Command line compressor : C:\Archivos de programa\Exact Audio Copy\FLAC\FLAC.EXE
Additional command line options : -6 -V -T "ARTIST=%artist%" -T "TITLE=%title%" -T "ALBUM=%albumtitle%" -T "DATE=%year%" -T "TRACKNUMBER=%tracknr%" -T "GENRE=%genre%" -T "COMMENT=%comment%" -T "BAND=%albuminterpret%" -T "ALBUMARTIST=%albuminterpret%" -T "COMPOSER=%composer%" %haslyrics%--tag-from-file=LYRICS="%lyricsfile%"%haslyrics% -T "DISCNUMBER=%cdnumber%" -T "TOTALDISCS=%totalcds%" -T "TOTALTRACKS=%numtracks%" %hascover%--picture="%coverfile%"%hascover% %source% -o %dest%

TOC of the extracted CD Track | Start | Length | Start sector | End sector
1 | 0:00.00 | 2:07.30 | 0 | 9554 2 | 2:07.30 | 5:20.10 | 9555 | 33564 3 | 7:27.40 | 7:32.60 | 33565 | 67524 4 | 15:00.25 | 3:55.20 | 67525 | 85169 5 | 18:55.45 | 6:29.38 | 85170 | 114382 6 | 25:25.08 | 4:41.30 | 114383 | 135487 7 | 30:06.38 | 5:35.10 | 135488 | 160622 8 | 35:41.48 | 4:09.00 | 160623 | 179297 9 | 39:50.48 | 5:17.37 | 179298 | 203109
10 | 45:08.10 | 5:47.63 | 203110 | 229197
11 | 50:55.73 | 6:00.22 | 229198 | 256219
12 | 56:56.20 | 6:33.70 | 256220 | 285764
13 | 63:30.15 | 3:11.65 | 285765 | 300154
14 | 66:42.05 | 4:50.28 | 300155 | 321932
15 | 71:32.33 | 3:40.42 | 321933 | 338474

Range status and errors

Selected range Filename E:\MUSICA\Mi Música\Wagner-Solti-Das Rheingold 96Khz. 24Bit Remastering\CD2\Richard Wagner - Das Rheingold 96Khz 24 Bit (disc 2).wav Peak level 100.0 %
Extraction speed 8.5 X
Range quality 100.0 %
Test CRC 1B75AF1E
Copy CRC 1B75AF1E
Copy OK

No errors occurred


AccurateRip summary

Track 1 cannot be verified as accurate (confidence 1) [DBFBB73A], AccurateRip returned [354BA58C] (AR v2)
Track 2 cannot be verified as accurate (confidence 1) [6809202C], AccurateRip returned [8D7CDEEA] (AR v2)
Track 3 cannot be verified as accurate (confidence 1) [46BB519C], AccurateRip returned [4A6CDF2C] (AR v2)
Track 4 cannot be verified as accurate (confidence 1) [39A76E58], AccurateRip returned [0946F964] (AR v2)
Track 5 cannot be verified as accurate (confidence 1) [24D5010B], AccurateRip returned [A2195795] (AR v2)
Track 6 cannot be verified as accurate (confidence 1) [6AF68E4B], AccurateRip returned [738630C3] (AR v2)
Track 7 cannot be verified as accurate (confidence 1) [6D3AAD61], AccurateRip returned [3E507BFB] (AR v2)
Track 8 cannot be verified as accurate (confidence 1) [EEBD287A], AccurateRip returned [7FE8A84F] (AR v2)
Track 9 cannot be verified as accurate (confidence 1) [010AF572], AccurateRip returned [FC63C35E] (AR v2)
Track 10 cannot be verified as accurate (confidence 1) [2B3BC652], AccurateRip returned [8A5FE240] (AR v2)
Track 11 cannot be verified as accurate (confidence 1) [78E03941], AccurateRip returned [A7A24A5E] (AR v2)
Track 12 cannot be verified as accurate (confidence 1) [0FE265ED], AccurateRip returned [5F69ED3D] (AR v2)
Track 13 cannot be verified as accurate (confidence 1) [0FC3CC86], AccurateRip returned [5C188948] (AR v2)
Track 14 cannot be verified as accurate (confidence 1) [23F059BB], AccurateRip returned [1ED96C59] (AR v2)
Track 15 cannot be verified as accurate (confidence 1) [86583557], AccurateRip returned [DCD6117D] (AR v2)

No tracks could be verified as accurate
You may have a different pressing from the one(s) in the database

End of status report

==== Log checksum 4F840E6C5287012ADD53AA5504E34A1ED359E4C3C1D991F96BC0CBD7AF2AE6C1 ====

--

Exact Audio Copy V1.0 beta 3 from 29. August 2011

EAC extraction logfile from 15. July 2012, 19:05

Richard Wagner / Das Rheingold 96Khz 24 Bit (disc 2)

Used drive : SONY DVD RW DRU-840A Adapter: 0 ID: 1

Read mode : Secure
Utilize accurate stream : Yes
Defeat audio cache : Yes
Make use of C2 pointers : No

Read offset correction

: 6
Overread into Lead-In and Lead-Out : No
Fill up missing offset samples with silence : Yes
Delete leading and trailing silent blocks : No
Null samples used in CRC calculations : Yes
Used interface
: Native Win32 interface for Win NT & 2000

Used output format : User Defined Encoder
Selected bitrate : 320 kBit/s
Quality : High
Add ID3 tag : No
Command line compressor : C:\Archivos de programa\Exact Audio Copy\FLAC\FLAC.EXE
Additional command line options : -6 -V -T "ARTIST=%artist%" -T "TITLE=%title%" -T "ALBUM=%albumtitle%" -T "DATE=%year%" -T "TRACKNUMBER=%tracknr%" -T "GENRE=%genre%" -T "COMMENT=%comment%" -T "BAND=%albuminterpret%" -T "ALBUMARTIST=%albuminterpret%" -T "COMPOSER=%composer%" %haslyrics%--tag-from-file=LYRICS="%lyricsfile%"%haslyrics% -T "DISCNUMBER=%cdnumber%" -T "TOTALDISCS=%totalcds%" -T "TOTALTRACKS=%numtracks%" %hascover%--picture="%coverfile%"%hascover% %source% -o %dest%

TOC of the extracted CD Track | Start | Length | Start sector | End sector
1 | 0:00.00 | 2:07.30 | 0 | 9554 2 | 2:07.30 | 5:20.10 | 9555 | 33564 3 | 7:27.40 | 7:32.60 | 33565 | 67524 4 | 15:00.25 | 3:55.20 | 67525 | 85169 5 | 18:55.45 | 6:29.38 | 85170 | 114382 6 | 25:25.08 | 4:41.30 | 114383 | 135487 7 | 30:06.38 | 5:35.10 | 135488 | 160622 8 | 35:41.48 | 4:09.00 | 160623 | 179297 9 | 39:50.48 | 5:17.37 | 179298 | 203109
10 | 45:08.10 | 5:47.63 | 203110 | 229197
11 | 50:55.73 | 6:00.22 | 229198 | 256219
12 | 56:56.20 | 6:33.70 | 256220 | 285764
13 | 63:30.15 | 3:11.65 | 285765 | 300154
14 | 66:42.05 | 4:50.28 | 300155 | 321932
15 | 71:32.33 | 3:40.42 | 321933 | 338474

Range status and errors

Selected range Filename E:\MUSICA\Mi Música\Wagner-Solti-Das Rheingold 96Khz. 24Bit Remastering\CD2\Richard Wagner - Das Rheingold 96Khz 24 Bit (disc 2).wav Peak level 100.0 %
Extraction speed 8.5 X
Range quality 100.0 %
Test CRC 1B75AF1E
Copy CRC 1B75AF1E
Copy OK

No errors occurred


AccurateRip summary

Track 1 cannot be verified as accurate (confidence 1) [DBFBB73A], AccurateRip returned [354BA58C] (AR v2)
Track 2 cannot be verified as accurate (confidence 1) [6809202C], AccurateRip returned [8D7CDEEA] (AR v2)
Track 3 cannot be verified as accurate (confidence 1) [46BB519C], AccurateRip returned [4A6CDF2C] (AR v2)
Track 4 cannot be verified as accurate (confidence 1) [39A76E58], AccurateRip returned [0946F964] (AR v2)
Track 5 cannot be verified as accurate (confidence 1) [24D5010B], AccurateRip returned [A2195795] (AR v2)
Track 6 cannot be verified as accurate (confidence 1) [6AF68E4B], AccurateRip returned [738630C3] (AR v2)
Track 7 cannot be verified as accurate (confidence 1) [6D3AAD61], AccurateRip returned [3E507BFB] (AR v2)
Track 8 cannot be verified as accurate (confidence 1) [EEBD287A], AccurateRip returned [7FE8A84F] (AR v2)
Track 9 cannot be verified as accurate (confidence 1) [010AF572], AccurateRip returned [FC63C35E] (AR v2)
Track 10 cannot be verified as accurate (confidence 1) [2B3BC652], AccurateRip returned [8A5FE240] (AR v2)
Track 11 cannot be verified as accurate (confidence 1) [78E03941], AccurateRip returned [A7A24A5E] (AR v2)
Track 12 cannot be verified as accurate (confidence 1) [0FE265ED], AccurateRip returned [5F69ED3D] (AR v2)
Track 13 cannot be verified as accurate (confidence 1) [0FC3CC86], AccurateRip returned [5C188948] (AR v2)
Track 14 cannot be verified as accurate (confidence 1) [23F059BB], AccurateRip returned [1ED96C59] (AR v2)
Track 15 cannot be verified as accurate (confidence 1) [86583557], AccurateRip returned [DCD6117D] (AR v2)

No tracks could be verified as accurate
You may have a different pressing from the one(s) in the database

End of status report

==== Log checksum 4F840E6C5287012ADD53AA5504E34A1ED359E4C3C1D991F96BC0CBD7AF2AE6C1 ====
Download links:
(Buy premium account via my links to have best speed and resumable ability)


Interchangeable links - No Pass

Direct Download

Tags: Wagner, Rheingold, Remastering

Wagner - Das Rheingold - Solti ( 96 Khz. 24 Bit Remastering - 2008 ) Re Up Download via Hotfile Rapidshare Fileserve Megaupload & FileSonic, Wagner - Das Rheingold - Solti ( 96 Khz. 24 Bit Remastering - 2008 ) Re Up free torrent downloads included crack, serial, keygen.


Attention!Information

Members of Guest cannot leave comments.