Buddy Guy & Junior Wells - Messin' With The Kids (2006) RE-UP

Download Now

Buddy Guy & Junior Wells - Messin' With The Kids (2006) RE-UP

Buddy Guy & Junior Wells - Messin' With The Kids (2006)
EAC-FLAC Image with CUE & LOG - 286 MB | Full Scans | MP3 CBR 320 Kbps - 102 MB
Live At The 1974 Montreux Jazz Festival | 44:44 mins | Label: Sanctuary | Cat. # CMRCD1270

Cut at the 1974 Montreux Jazz Festival with Stones' bassist Bill Wyman anchoring the rhythm section, the set captures some of the ribald musical repartee that customarily distinguished the pairing of Buddy Guy and Junior Wells, though they certainly break no new ground as they roll through their signature songs.
"allmusic.com says:
No blues tandem in recent memory has given more alternately brilliant and infuriating performances as the duo of Junior Wells and Buddy Guy. They can inspire or anger, stimulate or disgust, amaze or bore. They were in a great groove during the selections recorded at this concert for Isabel. They have been recently reissued with two bonus cuts as part of Evidence's huge cache of blues material. Wells' often rambling, sometimes disjointed and unorganized vocals were not only focused on this occasion but delivered with verve, direction, and intensity. Guy stayed in the background, but when summoned, played with less flair and more power, dispensing with distortion and feedback gimmicks and providing neat fills, slashing lines, and meaty riffs. Fine Wells/Guy material that is close, if not completely equal to, their best."


Tracks:

01. Introduction
02. Ah'w Baby -- Everything Gonna Be Alright
03. How Can One Woman Be So Mean
04. Checking On My Baby
05. When You See The Tears From My Eyes
06. Introduction
07. Ten Years Ago
08. Messing With The Kid
09. Hoodoo Man Blues
10. My Younger Days

Produced by Bill Wyman.
Mixed by Bill Wyman & Paul Lisbon.
Mastered by Chris Kimsey at Sterling Sound, NY.

- Buddy Guy: vocals, guitar
- Junior Wells: vocals, harmonica
- Terry Taylor: rhythm guitar
- Bill Wyman: bass
- Pinetop Perkins: piano
- Dallas Taylor: drums

Exact Audio Copy V0.99 prebeta 4 from 23. January 2008

Отчёт EAC об извлечении, выполненном 8. мая 2011, 19:00

Buddy Guy & Junior Wells / Messin' With The Kids

Дисковод: Optiarc DVD RW AD-7200A Adapter: 0 ID: 1

Режим чтения : Достоверность
Использование точного потока : Да
Отключение кэша аудио : Да
Использование указателей C2 : Нет

Коррекция смещения при чтении : 48
Способность читать области Lead-in и Lead-out : Нет
Заполнение пропущенных сэмплов тишиной : Да
Удаление блоков с тишиной в начале и конце : Нет
При вычислениях CRC использовались нулевые сэмплы : Да
Интерфейс : Встроенный Win32-интерфейс для Win NT/2000

Выходной формат : Пользовательский кодировщик
Выбранный битрейт : 128 kBit/s
Качество : Высокий
Добавление ID3-тэга : Нет
Утилита сжатия : C:\Program Files\Exact Audio Copy\wavpack.exe
Дополнительные параметры : -w "Artist=%a" -w "Title=%t" -w "Album=%g" -w "Year=%y" -w "Track=%n" -w "Genre=%m" -h %s %d

TOC извлечённого CD Трек | Старт | Длительность | Начальный сектор | Конечный сектор

1 | 0:00.33 | 0:52.50 | 33 | 3982
2 | 0:53.08 | 4:06.37 | 3983 | 22469
3 | 4:59.45 | 6:21.50 | 22470 | 51094
4 | 11:21.20 | 4:56.13 | 51095 | 73307
5 | 16:17.33 | 6:10.00 | 73308 | 101057
6 | 22:27.33 | 1:10.12 | 101058 | 106319
7 | 23:37.45 | 8:50.63 | 106320 | 146132
8 | 32:28.33 | 3:38.50 | 146133 | 162532
9 | 36:07.08 | 5:42.50 | 162533 | 188232
10 | 41:49.58 | 2:54.25 | 188233 | 201307

Характеристики диапазона извлечения и сообщения об ошибках

Выбранный диапазон Имя файла Y:\Releases\Buddy Guy & Junior Wells\Messin' with the kids\Buddy Guy & Junior Wells - Messin' with the kids (2006)\Buddy Guy & Junior Wells - Messin' With The Kids.wav Пиковый уровень 91.1 %
Качество диапазона 99.9 %
CRC теста 3A0D6F7B
CRC копии 3A0D6F7B
Копирование... OK

Ошибок не произошло


AccurateRip: сводка

Трек 1 нет в базе данных
Трек 2 нет в базе данных
Трек 3 нет в базе данных
Трек 4 нет в базе данных
Трек 5 нет в базе данных
Трек 6 нет в базе данных
Трек 7 нет в базе данных
Трек 8 нет в базе данных
Трек 9 нет в базе данных
Трек 10 нет в базе данных

Ни одного трека нет в базе AccurateRip

Конец отчёта

____________________________

Pregap length 00:00:33.
[AccurateRip ID: 00101eda-008523f8-840a7c0a] disk not present in database.

Track Peak [ CRC32 ] [W/O NULL] [ LOG ]
-- 91,1 [3A0D6F7B] [60193ABA] CRC32
01 89,1 [C208C54D] [95EA1115]
02 90,7 [9B91CDCC] [7D99805F]
03 91,1 [5FF30DDF] [30EA468C]
04 90,8 [EB76B88E] [56BF9864]
05 91,1 [9175E698] [214165E7]
06 73,1 [3C45B60A] [54FBF060]
07 91,0 [91B38500] [4332B7C0]
08 90,7 05C5D72 [E6E5E2AF]
09 91,1 [D4135704] [124A9506]
10 90,5 [36718F14] [FAB276A6]
DOWNLOAD LINKS:
Buy Premium To Support Me & Get Resumable Support & Max Speed


Links are Interchangeable - No Password - Single Extraction

Direct Download

Tags: Junior, Messin

Buddy Guy & Junior Wells - Messin' With The Kids (2006) RE-UP Download via Hotfile Rapidshare Fileserve Megaupload & FileSonic, Buddy Guy & Junior Wells - Messin' With The Kids (2006) RE-UP free torrent downloads included crack, serial, keygen.


Attention!Information

Members of Guest cannot leave comments.