Elmer Gantry's Velvet Opera - 2 Studio Albums (1968-1969)

Download Now

Elmer Gantry's Velvet Opera - 2 Studio Albums (1968-1969)

Elmer Gantry's Velvet Opera - 2 Studio Albums (1968-1969)
EAC Rip | FLAC (tracks/image+.cue+log) - 631 MB | MP3 CBR 320 kbps (LAME 3.93) - 236 MB | Covers - 94 MB
Genre: Progressive/Psychedelic Rock | RAR 3% Rec. | Label: Repertoire Records

"Elmer Gantry's Velvet Opera, a very long name for a short living British band formed in 1967 during the peak of British Psychedelia, but despite their formation era, they were one of the most advanced bands from their era, blended with great respect R&B, Jazz Psychedelia a la early Pink Floyd and a touch of The Nice style, hard to say if they were inspired in Keith Emerson's sound because they are coetaneous, but you can find many similarities. The first option was The Velvet Opera, but Dave Terry appeared in a session wearing a long black cape and a preachers hat, the band immediately identified him with Sinclair Lewis fictional character Elmer Gantry and in that moment his name changed and the band was baptized as Elmer Gantry's Velvet Opera..."

Elmer Gantry's Velvet Opera - 2 Studio Albums (1968-1969)

Elmer Gantry's Velvet Opera - Elmer Gantry's Velvet Opera (1968) [Reissue 2010]
EAC Rip | FLAC (tracks+.cue+log) - 300 MB | MP3 CBR 320 kbps (LAME 3.93) - 118 MB | Covers - 84 MB
Genre: Progressive/Psychedelic Rock | RAR 3% Rec. | Label: Repertoire Records (REP 5198)

Tracklist:
01. Intro
02. Mother Writes
03. Mary Jane
04. I Was Cool
05. Water Sly Meets Bill Bailey
06. Air
07. Lookin' For A Happy Life
08. Flames
09. What's The Point Of Leaving
10. Long Nights Of Summer
11. Dream Starts
12. Reaction Of A Young Man
13. Now She's Gone
14. Flames (Single version, Bonus track)
15. Salisbury Plain (Single version, Bonus track)
16. Mary Jane (Single version, Bonus track)
17. Dreamy (Single version, Bonus track)
18. Volcano (Single version, Bonus track)
19. A Quick "B" (Single version, Bonus track)

Total time: 50:15

Exact Audio Copy V1.0 beta 3 from 29. August 2011

EAC extraction logfile from 4. May 2015, 19:52

Elmer Gantry's Velvet Opera / Elmer Gantry's Velvet Opera

Used drive : HL-DT-STDVDRAM GH24NS95 Adapter: 3 ID: 0

Read mode : Secure
Utilize accurate stream : Yes
Defeat audio cache : Yes
Make use of C2 pointers : No

Read offset correction

: 6
Overread into Lead-In and Lead-Out : No
Fill up missing offset samples with silence : Yes
Delete leading and trailing silent blocks : No
Null samples used in CRC calculations : Yes
Used interface
: Native Win32 interface for Win NT & 2000
Gap handling
: Appended to previous track

Used output format : User Defined Encoder
Selected bitrate : 128 kBit/s
Quality : High
Add ID3 tag : Yes
Command line compressor : C:\Program Files\FLAC\flac.exe
Additional command line options : -6 -V -T "ARTIST=%artist%" -T "TITLE=%title%" -T "ALBUM=%albumtitle%" -T "DATE=%year%" -T "TRACKNUMBER=%tracknr%" -T "GENRE=%genre%" -T "COMMENT=%comment%" %hascover%--picture="%coverfile%"%hascover% %source% -o %dest%

TOC of the extracted CD Track | Start | Length | Start sector | End sector
1 | 0:00.00 | 0:59.32 | 0 | 4456 2 | 0:59.32 | 2:05.64 | 4457 | 13895 3 | 3:05.21 | 2:25.12 | 13896 | 24782 4 | 5:30.33 | 2:58.19 | 24783 | 38151 5 | 8:28.52 | 3:08.69 | 38152 | 52320 6 | 11:37.46 | 3:10.66 | 52321 | 66636 7 | 14:48.37 | 3:00.59 | 66637 | 80195 8 | 17:49.21 | 3:09.32 | 80196 | 94402 9 | 20:58.53 | 2:10.26 | 94403 | 104178
10 | 23:09.04 | 2:33.67 | 104179 | 115720
11 | 25:42.71 | 3:00.03 | 115721 | 129223
12 | 28:42.74 | 2:37.09 | 129224 | 141007
13 | 31:20.08 | 2:25.09 | 141008 | 151891
14 | 33:45.17 | 3:08.74 | 151892 | 166065
15 | 36:54.16 | 2:36.66 | 166066 | 177831
16 | 39:31.07 | 2:34.01 | 177832 | 189382
17 | 42:05.08 | 2:31.35 | 189383 | 200742
18 | 44:36.43 | 2:36.41 | 200743 | 212483
19 | 47:13.09 | 3:01.67 | 212484 | 226125

Track 1 Filename F:\Extract Audio Copy\by fovit\01 - Intro.wav Pre-gap length 0:00:02.00 Peak level 87.8 %
Extraction speed 0.8 X
Track quality 99.8 %
Copy CRC 7E955411
Track not present in AccurateRip database
Copy OK

Track 2 Filename F:\Extract Audio Copy\by fovit\02 - Mother Writes.wav Peak level 87.8 %
Extraction speed 0.7 X
Track quality 99.9 %
Copy CRC BFAE343A
Track not present in AccurateRip database
Copy OK

Track 3 Filename F:\Extract Audio Copy\by fovit\03 - Mary Jane.wav Pre-gap length 0:00:02.00 Peak level 87.8 %
Extraction speed 1.0 X
Track quality 100.0 %
Copy CRC 38E0F912
Track not present in AccurateRip database
Copy OK

Track 4 Filename F:\Extract Audio Copy\by fovit\04 - I Was Cool.wav Pre-gap length 0:00:02.00 Peak level 87.8 %
Extraction speed 1.0 X
Track quality 99.9 %
Copy CRC 54D5D118
Track not present in AccurateRip database
Copy OK

Track 5 Filename F:\Extract Audio Copy\by fovit\05 - Water Sly Meets Bill Bailey.wav Pre-gap length 0:00:02.00 Peak level 87.8 %
Extraction speed 1.0 X
Track quality 99.9 %
Copy CRC 409EAB7C
Track not present in AccurateRip database
Copy OK

Track 6 Filename F:\Extract Audio Copy\by fovit\06 - Air.wav Pre-gap length 0:00:02.00 Peak level 87.8 %
Extraction speed 1.1 X
Track quality 99.9 %
Copy CRC 65EFBA24
Track not present in AccurateRip database
Copy OK

Track 7 Filename F:\Extract Audio Copy\by fovit\07 - Lookin' For A Happy Life.wav Pre-gap length 0:00:02.00 Peak level 87.8 %
Extraction speed 1.3 X
Track quality 100.0 %
Copy CRC F1A66D62
Track not present in AccurateRip database
Copy OK

Track 8 Filename F:\Extract Audio Copy\by fovit\08 - Flames.wav Pre-gap length 0:00:02.00 Peak level 87.8 %
Extraction speed 1.4 X
Track quality 100.0 %
Copy CRC 78013EBC
Track not present in AccurateRip database
Copy OK

Track 9 Filename F:\Extract Audio Copy\by fovit\09 - What's The Point Of Leaving.wav Pre-gap length 0:00:02.00 Peak level 87.8 %
Extraction speed 1.4 X
Track quality 100.0 %
Copy CRC 3F662170
Track not present in AccurateRip database
Copy OK

Track 10 Filename F:\Extract Audio Copy\by fovit\10 - Long Nights Of Summer.wav Pre-gap length 0:00:02.00 Peak level 87.8 %
Extraction speed 1.4 X
Track quality 100.0 %
Copy CRC 7F221EC4
Track not present in AccurateRip database
Copy OK

Track 11 Filename F:\Extract Audio Copy\by fovit\11 - Dream Starts.wav Pre-gap length 0:00:02.00 Peak level 87.8 %
Extraction speed 1.6 X
Track quality 100.0 %
Copy CRC 299A6B0A
Track not present in AccurateRip database
Copy OK

Track 12 Filename F:\Extract Audio Copy\by fovit\12 - Reaction Of A Young Man.wav Pre-gap length 0:00:02.00 Peak level 87.8 %
Extraction speed 1.6 X
Track quality 100.0 %
Copy CRC BCA33F3B
Track not present in AccurateRip database
Copy OK

Track 13 Filename F:\Extract Audio Copy\by fovit\13 - Now She's Gone.wav Pre-gap length 0:00:02.00 Peak level 87.8 %
Extraction speed 1.6 X
Track quality 100.0 %
Copy CRC 782D66F6
Track not present in AccurateRip database
Copy OK

Track 14 Filename F:\Extract Audio Copy\by fovit\14 - Flames (single version).wav Pre-gap length 0:00:02.00 Peak level 87.8 %
Extraction speed 1.7 X
Track quality 100.0 %
Copy CRC 467CE372
Track not present in AccurateRip database
Copy OK

Track 15 Filename F:\Extract Audio Copy\by fovit\15 - Salisbury Plain (single version).wav Pre-gap length 0:00:02.00 Peak level 87.8 %
Extraction speed 1.7 X
Track quality 100.0 %
Copy CRC 58B72ACB
Track not present in AccurateRip database
Copy OK

Track 16 Filename F:\Extract Audio Copy\by fovit\16 - Mary Jane (single version).wav Pre-gap length 0:00:02.00 Peak level 87.8 %
Extraction speed 1.4 X
Track quality 99.9 %
Copy CRC 78DEE91E
Track not present in AccurateRip database
Copy OK

Track 17 Filename F:\Extract Audio Copy\by fovit\17 - Dreamy (single version).wav Pre-gap length 0:00:02.00 Peak level 87.8 %
Extraction speed 1.8 X
Track quality 100.0 %
Copy CRC 2E0486CF
Track not present in AccurateRip database
Copy OK

Track 18 Filename F:\Extract Audio Copy\by fovit\18 - Volcano (single version).wav Pre-gap length 0:00:02.00 Peak level 87.8 %
Extraction speed 1.8 X
Track quality 100.0 %
Copy CRC 3093C3D0
Track not present in AccurateRip database
Copy OK

Track 19 Filename F:\Extract Audio Copy\by fovit\19 - A Quick ''B'' (single version).wav Pre-gap length 0:00:02.00 Peak level 87.8 %
Extraction speed 1.9 X
Track quality 100.0 %
Copy CRC B5EEA67A
Track not present in AccurateRip database
Copy OK

None of the tracks are present in the AccurateRip database

No errors occurred

End of status report

==== Log checksum 08775494005031CDC89E91EC6DEF53EE86E3B196954192A08F8EC3E4109B1EE3 ====

[CUETools log; Date: 29.05.2015 20:33:05; Version: 2.1.4]
[CTDB TOCID: btQgxwzRch2VcRRB9Vt4o4y79Ok-] disk not present in database.
[AccurateRip ID: 002168bf-01db8e1b-fd0bc713] disk not present in database.

Track Peak [ CRC32 ] [W/O NULL] [ LOG ]
-- 87,8 [6EA7E0B7] [54603B6F]
01 87,8 [7E955411] BCF7679 CRC32
02 87,8 FAE343A [D58BCF77] CRC32
03 87,8 [38E0F912] [F124F9CB] CRC32
04 87,8 [54D5D118] [D7EB7245] CRC32
05 87,8 [409EAB7C] [72B2AA5D] CRC32
06 87,8 [65EFBA24] [64FB6E7B] CRC32
07 87,8 [F1A66D62] [39559847] CRC32
08 87,8 [78013EBC] [1E53E665] CRC32
09 87,8 [3F662170] [64124CE7] CRC32
10 87,8 [7F221EC4] [F06E906C] CRC32
11 87,8 [299A6B0A] [17783AC5] CRC32
12 87,8 CA33F3B [6BDE9849] CRC32
13 87,8 [782D66F6] [C5925541] CRC32
14 87,8 [467CE372] [5DF5A4E9] CRC32
15 87,8 [58B72ACB] [35A7D406] CRC32
16 87,8 [78DEE91E] [7B554161] CRC32
17 87,8 [2E0486CF] [3E43C9F5] CRC32
18 87,8 [3093C3D0] [3C42752F] CRC32
19 87,8 5EEA67A [EE805330] CRC32

Elmer Gantry's Velvet Opera - 2 Studio Albums (1968-1969)

Velvet Opera - Ride A Hustler's Dream (1969) [Reissue 1995]
EAC Rip | FLAC (image+.cue+log) - 331 MB | MP3 CBR 320 kbps (LAME 3.93) - 118 MB | Covers - 10 MB
Genre: Progressive/Psychedelic Rock | RAR 3% Rec. | Label: Repertoire Records (REP 4531-WP)

Tracklist:
01. Ride A Hustler's Dream
02. Statesboro Blues
03. Money By
04. Black Jack Davy
05. Raise The Light
06. Raga
07. Anna Dance Square
08. Depresssion
09. Don't You Realize
10. Warm Day In July
11. Eleanor Rigby
12. She Keeps Giving Me These Feelings (Bonus track)
13. There's A Hole In My Pocket (Bonus track)

Total time: 50:25

Exact Audio Copy V0.99 prebeta 3 from 28. July 2007

EAC Auslese-Logdatei vom 13. Mai 2009, 18:52

Velvet Opera / Ride A Hustler's Dream

Benutztes Laufwerk : _NEC DVD_RW ND-4571A Adapter: 1 ID: 0

Lesemodus

: Sicher
Benutze Accurate Stream : Ja
Audio Puffer abgeschaltet : Ja
Benutze C2 Fehlerinformationen : Nein

Leseoffset Korrektur : 48
Ьberlesen in das Lead-In und Lead-Out : Nein
Fьlle fehlende Offsetsample mit Stille auf : Ja
Lцsche fьhrende und nachfolgende stille Blцcke : Nein
Null Samples gehen in CRC Berechnungen ein : Nein
Benutzte Schnittstelle : Installierte externe ASPI Schnittstelle

Benutztes Ausgabeformat : Benutzerdefinierter Komprimierer
Gewдhlte Bitrate : 768 kBit/s
Qualitдt : Hoch
Fьge ID3 Tag hinzu : Nein
Kommandozeilen Komprimierer : C:\Programme\Exact Audio Copy\FLAC\FLAC.EXE
Zusдtzliche Kommandozeilenoptionen : -6 -V -T "ARTIST=%a" -T "TITLE=%t" -T "ALBUM=%g" -T "DATE=%y" -T "TRACKNUMBER=%n" -T "GENRE=%m" -T "COMMENT=%e" %s -o %d

TOC der ausgelesenen CD Track | Start | Lдnge | Startsektor | Endsektor
---------1 | 0:00.00 | 0:57.67 | 0 | 4341 2 | 0:57.67 | 3:42.05 | 4342 | 20996 3 | 4:39.72 | 3:58.03 | 20997 | 38849 4 | 8:38.00 | 3:37.57 | 38850 | 55181 5 | 12:15.57 | 4:12.13 | 55182 | 74094 6 | 16:27.70 | 5:32.65 | 74095 | 99059 7 | 22:00.60 | 3:04.35 | 99060 | 112894 8 | 25:05.20 | 4:04.52 | 112895 | 131246 9 | 29:09.72 | 3:40.28 | 131247 | 147774
10 | 32:50.25 | 5:10.37 | 147775 | 171061
11 | 38:00.62 | 5:57.35 | 171062 | 197871
12 | 43:58.22 | 2:41.55 | 197872 | 210001
13 | 46:40.02 | 3:44.73 | 210002 | 226874

Bereichsstatus und Fehler

Gewдhlter Bereich Dateiname E:\New Folder 1\Velvet Opera - Ride A Hustler's Dream.wav Spitzenpegel 98.4 %
Bereichsqualitдt 100.0 %
Kopie CRC 9EDFD455
Kopie OK

Keine Fehler aufgetreten

Ende des Statusreports

[CUETools log; Date: 29.05.2015 20:33:42; Version: 2.1.4]
[CTDB TOCID: ICE7dW3NEd_LM_Sbh_QOCCDuvls-] found.
Track | CTDB Status
1 | (3/3) Accurately ripped
2 | (3/3) Accurately ripped
3 | (3/3) Accurately ripped
4 | (3/3) Accurately ripped
5 | (3/3) Accurately ripped
6 | (3/3) Accurately ripped
7 | (3/3) Accurately ripped
8 | (3/3) Accurately ripped
9 | (3/3) Accurately ripped
10 | (3/3) Accurately ripped
11 | (3/3) Accurately ripped
12 | (3/3) Accurately ripped
13 | (3/3) Accurately ripped
[AccurateRip ID: 0016bd4e-00ea759b-a90bd10d] found.
Track [ CRC | V2 ] Status
01 [cd9d2c81|0ce4342d] (1+0/4) Accurately ripped
02 [f0652562|0059dbd7] (1+0/4) Accurately ripped
03 [c3e9f217|1e6f1676] (1+0/4) Accurately ripped
04 [c47ab016|ffc060f3] (1+0/4) Accurately ripped
05 [330d0e74|5668ac7b] (1+0/4) Accurately ripped
06 [4df96eaa|1066bbe4] (1+0/4) Accurately ripped
07 [eefd175f|9aae67dd] (1+0/4) Accurately ripped
08 [f7da143f|1a50ee31] (1+0/4) Accurately ripped
09 [ef6aa24c|409cb1ff] (1+0/4) Accurately ripped
10 [12a90621|fd87f44b] (1+0/4) Accurately ripped
11 [cab68610|ebec9cae] (1+0/4) Accurately ripped
12 d5b01ae|b29b6bf5 (1+0/4) Accurately ripped
13 [26b09d02|205690c3] (1+0/4) Accurately ripped
Offsetted by -471:
01 [db8461c0] (1/4) Accurately ripped
02 [94e3f3db] (1/4) Accurately ripped
03 [306b8c7a] (1/4) Accurately ripped
04 [fd49637e] (1/4) Accurately ripped
05 [85fc500e] (1/4) Accurately ripped
06 [1331c7ff] (1/4) Accurately ripped
07 [1fe8229c] (1/4) Accurately ripped
08 [1b7de630] (1/4) Accurately ripped
09 [70d0329d] (1/4) Accurately ripped
10 [37478cfe] (1/4) Accurately ripped
11 [e53748c6] (1/4) Accurately ripped
12 [1900b67c] (1/4) Accurately ripped
13 [d3770e80] (1/4) Accurately ripped
Offsetted by -66:
01 [cab09fa0] (1/4) Accurately ripped
02 [3b3d994b] (1/4) Accurately ripped
03 [d17cec01] (1/4) Accurately ripped
04 [abd3fbc6] (1/4) Accurately ripped
05 [fbd1a3e0] (1/4) Accurately ripped
06 [85547cd0] (1/4) Accurately ripped
07 [c4ed1c35] (1/4) Accurately ripped
08 [47da34ed] (1/4) Accurately ripped
09 [32773c3a] (1/4) Accurately ripped
10 [c7e4bdb7] (1/4) Accurately ripped
11 [50df6504] (1/4) Accurately ripped
12 [6b9fe1f2] (1/4) Accurately ripped
13 79016e6 (1/4) Accurately ripped

Track Peak [ CRC32 ] [W/O NULL]
-- 98,4 [624CEA3B] [9EDFD455]
01 89,1 [ABE6C4DE] [1136D9AF]
02 98,4 [8A8D0C34] [D6B08564]
03 96,3 [DD321A4F] [1A86956B]
04 98,4 [DDEE6435] [88349AEC]
05 98,4 [140B11ED] [7DD5804B]
06 98,4 [55C3C591] CF77655
07 92,0 E3706E3 [08381BB1]
08 98,4 [FCFA329E] [3B7C49FA]
09 98,4 [3AC5A9D2] [011A45E1]
10 95,3 [5243F81F] [0874B5B4]
11 89,5 [8ABB1F4F] [5EE13332]
12 96,4 [8D561E0E] [A0C6A3B1]
13 98,4 [8083C9A9] [A8ED5B53]

Thanks to Fovit & dorik
DOWNLOAD LINKS
(Premium Recommended)


Links are Interchangeable - No Password - Single Extraction

Direct Download

Tags: Gantry, Velvet, Studio, Albums

Elmer Gantry's Velvet Opera - 2 Studio Albums (1968-1969) Download via Hotfile Rapidshare Fileserve Megaupload & FileSonic, Elmer Gantry's Velvet Opera - 2 Studio Albums (1968-1969) free torrent downloads included crack, serial, keygen.


Attention!Information

Members of Guest cannot leave comments.