Syd Barrett - Barrett (1970) [2015, Parlophone WPCR-16395, Japan]

Download Now

Syd Barrett - Barrett (1970) [2015, Parlophone WPCR-16395, Japan]

Syd Barrett - Barrett (1970)
EAC | Flac(Image) + Cue + Log & MP3 CBR 320Kbps
Parlophone WPCR-16395 | ~ 356 or 150 Mb | Scans(png) -> 157 Mb
Psychedelic Rock

"On his second solo album, Barrett was joined by Humble Pie drummer Jerry Shirley and Pink Floyd members Rick Wright (organ) and Dave Gilmour (guitar). Gilmour and Wright acted as producers as well. Instrumentally, the result is a bit fuller and smoother than the first album, although it's since been revealed that Gilmour and Wright embellished these songs as best they could without much involvement from Barrett, who was often unable or unwilling to perfect his performance..."


Tracklist:

01. Baby Lemonade 04:11
02. Love Song 03:05
03. Dominoes 04:09
04. It Is Obvious 03:00
05. Rats 03:02
06. Maisie 02:51
07. Gigolo Aunt 05:47
08. Waving My Arms In The Air 02:07
09. I Never Lied To You 01:51
10. Wined And Dined 02:59
11. Wolfpack 03:41
12. Effervescing Elephant 01:56

Bonus Tracks (For Remastered Edition 1993):
13. Baby Lemonade (Take 1) 03:44
14. Waving My Arms In The Air (Take 1) 02:13
15. I Never Lied To You (Take 1) 01:48
16. Love Song (Take 1) 02:32
17. Dominoes (Take 1) 00:40
18. Dominoes (Take 2) 02:36
19. It Is Obvious (Take 2) 03:55

Bonus Tracks (For Japanese Papersleeve Edition 2015):
20. Bob Dylan Blues 03:13
21. Dominoes (2010 Mix) 04:07

* Tracks 16 & 20: Mono

Exact Audio Copy V1.0 beta 6 from 9. April 2015

EAC extraction logfile from 26. May 2015, 17:39

Syd Barrett / The Madcap Laughs SHM-CD

Used drive : PLEXTOR BD-R PX-B950SA Adapter: 1 ID: 1

Read mode : Secure
Utilize accurate stream : Yes
Defeat audio cache : Yes
Make use of C2 pointers : No

Read offset correction

: 6
Overread into Lead-In and Lead-Out : No
Fill up missing offset samples with silence : Yes
Delete leading and trailing silent blocks : No
Null samples used in CRC calculations : Yes
Used interface
: Native Win32 interface for Win NT & 2000

Used output format : Internal WAV Routines
Sample format : 44.100 Hz; 16 Bit; Stereo

TOC of the extracted CD Track | Start | Length | Start sector | End sector
1 | 0:00.00 | 5:04.28 | 0 | 22827 2 | 5:04.28 | 3:26.23 | 22828 | 38300 3 | 8:30.51 | 2:30.05 | 38301 | 49555 4 | 11:00.56 | 3:03.19 | 49556 | 63299 5 | 14:04.00 | 2:02.20 | 63300 | 72469 6 | 16:06.20 | 3:11.61 | 72470 | 86855 7 | 19:18.06 | 3:47.66 | 86856 | 103946 8 | 23:05.72 | 1:59.63 | 103947 | 112934 9 | 25:05.60 | 2:50.34 | 112935 | 125718
10 | 27:56.19 | 1:55.41 | 125719 | 134384
11 | 29:51.60 | 2:17.36 | 134385 | 144695
12 | 32:09.21 | 2:26.15 | 144696 | 155660
13 | 34:35.36 | 3:11.32 | 155661 | 170017
14 | 37:46.68 | 3:09.31 | 170018 | 184223
15 | 40:56.24 | 6:22.48 | 184224 | 212921
16 | 47:18.72 | 2:28.36 | 212922 | 224057
17 | 49:47.33 | 2:12.13 | 224058 | 233970
18 | 51:59.46 | 2:44.23 | 233971 | 246293
19 | 54:43.69 | 2:32.68 | 246294 | 257761
20 | 57:16.62 | 20:09.70 | 257762 | 348506

Range status and errors

Selected range Filename C:\Users\Meijin\Desktop\ALLexxess\Syd Barrett\1970 The Madcap Laughs (Mini LP SHM-CD Warner Music Japan 2015)\Syd Barrett - The Madcap Laughs SHM-CD.wav Peak level 100.0 %
Extraction speed 7.8 X
Range quality 99.9 %
Test CRC 97186852
Copy CRC 97186852
Copy OK

No errors occurred


AccurateRip summary

Track 1 not present in database
Track 2 not present in database
Track 3 not present in database
Track 4 not present in database
Track 5 not present in database
Track 6 not present in database
Track 7 not present in database
Track 8 not present in database
Track 9 not present in database
Track 10 not present in database
Track 11 not present in database
Track 12 not present in database
Track 13 not present in database
Track 14 not present in database
Track 15 not present in database
Track 16 not present in database
Track 17 not present in database
Track 18 not present in database
Track 19 not present in database
Track 20 not present in database

None of the tracks are present in the AccurateRip database

End of status report

---- CUETools DB Plugin V2.1.6

[CTDB TOCID: d6lhUHFlv7Psdr9TM1cyU.26qZc-] disk not present in database
Submit result: d6lhUHFlv7Psdr9TM1cyU.26qZc- has been uploaded

==== Log checksum C9B5F835E3CC15C03A999E61A0C97571434CC387C4ACC6C5D96ECF76C481D9B4 ====

foobar2000 1.2.9 / Dynamic Range Meter 1.1.1
log date: 2015-05-29 18:48:23

------
Analyzed: Syd Barrett / The Madcap Laughs SHM-CD
------

DR Peak RMS Duration Track
------
DR11 0.00 dB -13.85 dB 5:04 01-Terrapin
DR9 0.00 dB -10.95 dB 3:26 02-No Good Trying
DR9 0.00 dB -10.67 dB 2:30 03-Love You
DR8 0.00 dB -10.12 dB 3:03 04-No Man's Land
DR10 0.00 dB -12.75 dB 2:02 05-Dark Globe
DR13 0.00 dB -15.24 dB 3:12 06-Here I Go
DR9 0.00 dB -11.02 dB 3:48 07-Octopus
DR12 0.00 dB -14.47 dB 2:00 08-Golden Hair
DR8 0.00 dB -12.48 dB 2:50 09-Long Gone
DR11 0.00 dB -13.97 dB 1:56 10-She Took A Long Cool Look
DR10 0.00 dB -12.70 dB 2:17 11-Feel
DR8 0.00 dB -11.41 dB 2:26 12-If It's In You
DR10 0.00 dB -13.54 dB 3:11 13-Late Night
DR12 0.00 dB -13.75 dB 3:09 14-Octopus (Takes 1 & 2) / Bonus Remaster 1993
DR14 0.00 dB -17.30 dB 6:23 15-No Good Trying (Take 5) / Bonus Remaster 1993
DR13 0.00 dB -15.27 dB 2:28 16-Love You (Take 1) / Bonus Remaster 1993
DR13 0.00 dB -15.69 dB 2:12 17-Love Your (Take 1) onus Track for 1993 Remastered edition
DR12 0.00 dB -15.40 dB 2:44 18-She Took A Long Cool Look At Me (Take 4) / Bonus Remaster 1993
DR13 -0.47 dB -18.43 dB 2:33 19-Golden Hair (Take 5) / Bonus Remaster 1993
DR10 0.00 dB -11.67 dB 20:10 20-Rhamadam / Bonus Japanese Edition 2015
------

Number of tracks: 20
Official DR value: DR11

Samplerate: 44100 Hz
Channels: 2
Bits per sample: 16
Bitrate: 820 kbps
Codec: FLAC

[CUETools log; Date: 29.05.2015 18:47:38; Version: 2.1.4]
[CTDB TOCID: d6lhUHFlv7Psdr9TM1cyU.26qZc-] found.
Track | CTDB Status
1 | (1/1) Accurately ripped
2 | (1/1) Accurately ripped
3 | (1/1) Accurately ripped
4 | (1/1) Accurately ripped
5 | (1/1) Accurately ripped
6 | (1/1) Accurately ripped
7 | (1/1) Accurately ripped
8 | (1/1) Accurately ripped
9 | (1/1) Accurately ripped
10 | (1/1) Accurately ripped
11 | (1/1) Accurately ripped
12 | (1/1) Accurately ripped
13 | (1/1) Accurately ripped
14 | (1/1) Accurately ripped
15 | (1/1) Accurately ripped
16 | (1/1) Accurately ripped
17 | (1/1) Accurately ripped
18 | (1/1) Accurately ripped
19 | (1/1) Accurately ripped
20 | (1/1) Accurately ripped
[AccurateRip ID: 002d997a-029c1e1e-35122614] disk not present in database.

Track Peak [ CRC32 ] [W/O NULL] [ LOG ]
-- 100,0 [97186852] [E8E92700] CRC32
01 100,0 [76D0645F] [E844CDC9]
02 100,0 [DF614FA7] [4C655F38]
03 100,0 [D85E4652] [83019390]
04 100,0 [D1EAB288] [DA62989B]
05 100,0 [ECFD449A] [8C9A00D7]
06 100,0 [C59DC5D2] [65784F2A]
07 100,0 [7056271A] [9652D14B]
08 100,0 [D35A213C] [4D7F45F7]
09 100,0 [E1536250] [4E2B6A5E]
10 100,0 [AD8CB831] [3546D090]
11 100,0 [529D9AA0] 0D6BBB3
12 100,0 [2D6832DF] [2CD009E6]
13 100,0 [4338A898] [22A4C733]
14 100,0 [2AFDF247] [57E03E31]
15 100,0 [3FC4F5E3] [D96B4BE4]
16 100,0 [6CD75FDD] [97C22D1C]
17 100,0 [7ACA0F3F] [51153223]
18 100,0 [22B3C11E] [D301AC04]
19 94,7 [9359F618] [59AC5C40]
20 100,0 [85066F74] 8AB3F0B

Syd Barrett - Barrett (1970) [2015, Parlophone WPCR-16395, Japan]

Download:
Buy Premium To Support Me & Get Resumable Support & Max Speed


Links are Interchangeable - No Password

Direct Download

Tags: Barrett, Barrett, Parlophone

Syd Barrett - Barrett (1970) [2015, Parlophone WPCR-16395, Japan] Download via Hotfile Rapidshare Fileserve Megaupload & FileSonic, Syd Barrett - Barrett (1970) [2015, Parlophone WPCR-16395, Japan] free torrent downloads included crack, serial, keygen.


Attention!Information

Members of Guest cannot leave comments.