James Last - Games That Lovers Play (1966, 1980's reissue, Polydor # 821 610-2)

Download Now


James Last - Games That Lovers Play (1966, 1980's reissue, Polydor # 821 610-2)
James Last - Games That Lovers Play
EAC+LOG+CUE | FLAC: 192 MB | Full Artwork: 25 MB | 5% Recovery Info
Label/Cat#: Polydor # 821 610-2 | Country/Year: Germany 198_, 1966
Genre: Pop, Jazz | Style: Easy Listening, Instrumental

""James Last is a German big band leader with a large fan base in Europe, although he has never had a comparable following in the United States. Last's trademark is arranging pop hits in a big-band style; his series of "party albums" is equally well-known. Over the course of his career, he has sold well over 50 million albums." "



James Last - Games That Lovers Play (1966, 1980's reissue, Polydor # 821 610-2)



Exact Audio Copy V1.0 beta 3 from 29. August 2011

EAC extraction logfile from 8. October 2013, 13:30

James Last / Games That Lovers Play

Used drive : PLEXTOR CD-R PX-W1210A Adapter: 1 ID: 0

Read mode : Secure
Utilize accurate stream : Yes
Defeat audio cache : Yes
Make use of C2 pointers : No

Read offset correction

: 99
Overread into Lead-In and Lead-Out : No
Fill up missing offset samples with silence : Yes
Delete leading and trailing silent blocks : No
Null samples used in CRC calculations : Yes
Used interface
: Native Win32 interface for Win NT & 2000

Used output format : User Defined Encoder
Selected bitrate : 1024 kBit/s
Quality : High
Add ID3 tag : Yes
Command line compressor : C:\Program Files\FLAC\flac.exe
Additional command line options : -5 -T "Artist=%artist%" -T "Title=%title%" -T "Album=%albumtitle%" -T "Date=%year%" -T "Tracknumber=%tracknr%" -T "Genre=%genre%" %source% -o %dest%

TOC of the extracted CD Track | Start | Length | Start sector | End sector
1 | 0:00.33 | 2:34.42 | 33 | 11624 2 | 2:35.00 | 2:45.48 | 11625 | 24047 3 | 5:20.48 | 2:59.55 | 24048 | 37527 4 | 8:20.28 | 3:05.52 | 37528 | 51454 5 | 11:26.05 | 3:28.43 | 51455 | 67097 6 | 14:54.48 | 2:28.65 | 67098 | 78262 7 | 17:23.38 | 3:27.35 | 78263 | 93822 8 | 20:50.73 | 2:35.45 | 93823 | 105492 9 | 23:26.43 | 3:02.45 | 105493 | 119187
10 | 26:29.13 | 2:45.55 | 119188 | 131617
11 | 29:14.68 | 3:21.42 | 131618 | 146734
12 | 32:36.35 | 3:05.08 | 146735 | 160617

Range status and errors

Selected range Filename F:\=== VINYL RIPS ===\=== EAC===\X FRESH RIP\James Last - Games That Lovers Play.wav Peak level 97.4 %
Extraction speed 3.4 X
Range quality 100.0 %
Copy CRC 5AC7C470
Copy OK

No errors occurred


AccurateRip summary

Track 1 accurately ripped (confidence 2) [1D076226] (AR v2)
Track 2 accurately ripped (confidence 2) [FAD7D789] (AR v2)
Track 3 accurately ripped (confidence 2) 65652C5 (AR v2)
Track 4 accurately ripped (confidence 2) [C6E2715E] (AR v2)
Track 5 accurately ripped (confidence 2) [DE45950A] (AR v2)
Track 6 accurately ripped (confidence 2) [85BF4F19] (AR v2)
Track 7 accurately ripped (confidence 2) 5431588 (AR v2)
Track 8 accurately ripped (confidence 2) [62251AB5] (AR v2)
Track 9 accurately ripped (confidence 2) [FE156E62] (AR v2)
Track 10 accurately ripped (confidence 2) 9085A83 (AR v2)
Track 11 accurately ripped (confidence 2) [6051A769] (AR v2)
Track 12 accurately ripped (confidence 2) [FD956993] (AR v1)

All tracks accurately ripped

End of status report

---- CUETools DB Plugin V2.1.3

[CTDB TOCID: vNUqw5N.UaL4ZD7g_nYhp.A8T6U-] disk not present in database, Submit result: discs with pregaps not supported in this protocol version

==== Log checksum 852E8B96A9B5AA8D71387A9495DDA189B077C40B1458F0DD938B92E42E2C0E6B ====

foobar2000 1.1.14a / Dynamic Range Meter 1.1.1
log date: 2013-10-10 14:03:02

------
Analyzed: James Last / Games That Lovers Play
------

DR Peak RMS Duration Track
------
DR10 -0.93 dB -14.08 dB 2:35 01-Games That Lovers Play
DR11 -1.02 dB -14.30 dB 2:46 02-A Man And a Woman
DR10 -0.23 dB -14.21 dB 3:00 03-Make This Night Last Forever
DR10 -1.81 dB -15.44 dB 3:06 04-Never On Sunday
DR11 -1.22 dB -15.77 dB 3:29 05-Fly Me To The Moon
DR11 -0.80 dB -16.70 dB 2:29 06-This Is My Song
DR11 -5.03 dB -19.57 dB 3:27 07-Lara's Theme
DR10 -1.74 dB -16.11 dB 2:36 08-Now I Know
DR10 -4.07 dB -18.49 dB 3:03 09-What Now My Love
DR12 -5.95 dB -20.83 dB 2:46 10-Elizabethan Serenade
DR11 -5.29 dB -20.56 dB 3:22 11-I Left My Heart In San Francisco
DR10 -4.20 dB -18.17 dB 3:05 12-Sandy's Theme
------

Number of tracks: 12
Official DR value: DR11

Samplerate: 44100 Hz
Channels: 2
Bits per sample: 16
Bitrate: 755 kbps
Codec: FLAC

CD Info:

James Last - Games That Lovers Play

Label: Polydor
Catalog#: 821 610-2
Format: CD, Album, Reissue, Remastered
Country: Germany
Released: 198_, 1967
Genre: Pop, Jazz
Style: Easy Listening, Instrumental

Tracklist:

1 Games That Lovers Play 2:35
2 A Man And a Woman 2:46
3 Make This Night Last Forever 3:00
4 Never On Sunday 3:06
5 Fly Me To The Moon 3:29
6 This Is My Song 2:29
7 Lara's Theme 3:27
8 Now I Know 2:36
9 What Now My Love 3:03
10 Elizabethan Serenade 2:46
11 I Left My Heart In San Francisco 3:22
12 Sandy's Theme 3:05

CD is manufactured by PolyGram in Hanover, West Germany

" Artist Biography by Stephen Thomas Erlewine

James Last is a German big band leader with a large fan base in Europe, although he has never had a comparable following in the United States. Last's trademark is arranging pop hits in a big-band style; his series of "party albums" is equally well-known. Over the course of his career, he has sold well over 50 million albums.

Last learned how to play piano as child, switching to bass as a teenager. He joined Hans-Gunther Oesterreich's Radio Bremen Dance Orchestra in 1946, when he was 17 years old. In 1948, he became the leader of the Becker-Last Ensemble, which performed for seven years. During that time, he was voted as the best bassist in the country by a German jazz poll for three consecutive years, from 1950-1952. After the disbandment of the Becker-Last Ensemble, he became the in-house arranger for Polydor Records, as well as for a number of European radio stations. For the next decade, he helped arrange hits for artists like Helmut Zacharias and Caterina Valente.

Last released his first album, Non-Stop Dancing, in 1965. The record of brief renditions of popular songs, all tied together by an insistent dance beat and joyous crowd noises. It was a hit and helped make him a major European star. Over the next two decades, Last released over 50 records, including several more volumes of Non-Stop Dancing. On these records, he varied his formula by adding different songs from different countries and genres, as well as guest performers like Richard Clayderman and Astrud Gilberto.

Though his concerts and albums were consistently successful -- especially in England, where he had 52 hit albums between 1967-1986, which made him second to Elvis Presley in terms of number of charting records -- he only had one hit single with "The Seduction," the theme from American Gigolo (1980). ~allmusicguide"



James Last - Games That Lovers Play (1966, 1980's reissue, Polydor # 821 610-2)


DOWNLOAD
(Premium Recommended)


All above links are interchangable. No password

Direct Download

Tags: Lovers, reissue, Polydor

James Last - Games That Lovers Play (1966, 1980's reissue, Polydor # 821 610-2) Download via Hotfile Rapidshare Fileserve Megaupload & FileSonic, James Last - Games That Lovers Play (1966, 1980's reissue, Polydor # 821 610-2) free torrent downloads included crack, serial, keygen.


Attention!Information

Members of Guest cannot leave comments.