Mike & The Mechanics - Word Of Mouth (1991) [1st Japan press] RE-UP

Download Now

Mike & The Mechanics - Word Of Mouth (1991) [1st Japan press] RE-UP

Mike & The Mechanics - Word Of Mouth (1991) [1st Japan press]
EAC-FLAC Image with CUE and LOG - 313 MB | Complete Scans - 232 MB | MP3 CBR 320 Kbps - 108 MB
Pop / Rock / Adult Contemporary | TT - 47:57 minutes | Label: Virgin Japan Ltd. / Catalogue # VJCP-28031

Mike & The Mechanics are an English rock/pop supergroup formed in 1985 as a side project of Mike Rutherford, one of the founding members of the band Genesis. Word of Mouth is their third LP. There was some overlap with the marketing of the album and the making of Genesis's We Can't Dance, with Mike Rutherford being committed to both.
"allmusic.com says: Atlantic Records had reason to think they had a sure thing on their hands in the 1991 release of Mike + the Mechanics' third album, Word of Mouth. Here was a band with solid Top 40 pedigree, led by a guitarist/bassist with Genesis credentials (Mike Rutherford) and featuring not one but two vocalists with dozens of successful songs under their belts (Paul Carrack and Paul Young). The band had already recorded two hit albums and even scored a number one hit in "The Living Years." The new record led off with two killer pop songs -- the opening "Get Up," with its adrenaline-inducing piano runs and catchy chorus, and the rousing singalong title track. But within a few months of its release, Word of Mouth had already been banished to the discount racks and budget bins of nearly every record store in the English-speaking world. So what happened? It may be that music consumers had caught wind of the mediocre keyboard-based pop ballads that filled out the rest of the album. Songs like "A Time and Place," "Everybody Gets a Second Chance," and "Let's Pretend It Didn't Happen" are anemic lite-rock anthems that even Phil Collins would have passed on. Chances are, fans stayed away from this one because the word of mouth just wasn't good."


More info @ Wikipedia

Tracks:

01. Get Up
02. Word Of Mouth
03. A Time And Place
04. Yesterday, Today, Tommorrow
05. The Way You Look At Me
06. Everybody Gets A Second Chance
07. Stop Baby
08. My Crime Of Passion
09. Let's Pretend It Didn't Happen
10. Before (The Next Heartache Falls)

Produced by Christopher Neil, Mike Rutherford and Russ Titelman.

Exact Audio Copy V1.0 beta 3 from 29. August 2011

EAC extraction logfile from 12. May 2012, 17:05

Mike & The Mechanics / Word Of Mouth

Used drive : Optiarc BD RW BD-5300S Adapter: 3 ID: 0

Read mode : Secure
Utilize accurate stream : Yes
Defeat audio cache : Yes
Make use of C2 pointers : No

Read offset correction

: 6
Overread into Lead-In and Lead-Out : No
Fill up missing offset samples with silence : Yes
Delete leading and trailing silent blocks : No
Null samples used in CRC calculations : Yes
Used interface
: Installed external ASPI interface

Used output format : User Defined Encoder
Selected bitrate : 1024 kBit/s
Quality : High
Add ID3 tag : No
Command line compressor : C:\Program Files (x86)\Exact Audio Copy\Flac\flac.exe
Additional command line options : -8 -V -T "Date=%year%" -T "Genre=%genre%" -T "COMMENT=ripped by bvstudio®" %source%

TOC of the extracted CD Track | Start | Length | Start sector | End sector
1 | 0:00.37 | 4:23.13 | 37 | 19774 2 | 4:23.50 | 3:56.27 | 19775 | 37501 3 | 8:20.02 | 4:50.63 | 37502 | 59314 4 | 13:10.65 | 4:37.10 | 59315 | 80099 5 | 17:48.00 | 5:08.40 | 80100 | 103239 6 | 22:56.40 | 3:57.35 | 103240 | 121049 7 | 26:54.00 | 3:53.32 | 121050 | 138556 8 | 30:47.32 | 4:55.05 | 138557 | 160686 9 | 35:42.37 | 5:34.43 | 160687 | 185779
10 | 41:17.05 | 6:40.42 | 185780 | 215821

Range status and errors

Selected range Filename F:\Mike & The Mechanics - Word Of Mouth - 1991 (Japan)\Mike & The Mechanics - Word Of Mouth.wav Peak level 98.4 %
Extraction speed 8.4 X
Range quality 100.0 %
Test CRC 7692513D
Copy CRC 7692513D
Copy OK

No errors occurred


AccurateRip summary

Track 1 accurately ripped (confidence 2) [8C4EA2C2] (AR v1)
Track 2 accurately ripped (confidence 2) [76DC06A5] (AR v1)
Track 3 accurately ripped (confidence 2) [70F2AE9E] (AR v1)
Track 4 accurately ripped (confidence 2) [0A518843] (AR v1)
Track 5 accurately ripped (confidence 2) D4BDF7A (AR v1)
Track 6 accurately ripped (confidence 2) [646E387D] (AR v1)
Track 7 accurately ripped (confidence 2) [522677FA] (AR v1)
Track 8 accurately ripped (confidence 2) [ED99EC2A] (AR v1)
Track 9 accurately ripped (confidence 2) [E688319C] (AR v1)
Track 10 accurately ripped (confidence 2) [296823F6] (AR v1)

All tracks accurately ripped

End of status report

==== Log checksum 95536873A50EA7298C464F83B98ED735639C86367C6E247ADD4E45612A41F82A ====

Thanks to bvstudio!
Download:
Buy Premium To Support Me & Get Resumable Support & Max Speed


Links are Interchangeable - No Password

Direct Download

Tags: Mechanics

Mike & The Mechanics - Word Of Mouth (1991) [1st Japan press] RE-UP Download via Hotfile Rapidshare Fileserve Megaupload & FileSonic, Mike & The Mechanics - Word Of Mouth (1991) [1st Japan press] RE-UP free torrent downloads included crack, serial, keygen.


Attention!Information

Members of Guest cannot leave comments.