Savoy Brown - Strange Dreams (2003)

Download Now

Savoy Brown - Strange Dreams (2003)

Savoy Brown - Strange Dreams (2003)
EAC | FLAC | Image (Cue&Log) ~ 345 Mb (incl 5%) | Mp3 (CBR320) ~ 148 Mb (incl 5%) | Scans included
Genre: Blues Rock, British Blues | Label: Blind Pig | # BPCD5082 | Time: 00:45:54

"Except for founding leader/guitarist Kim Simmonds, this long-lived band's 2003 lineup bears no resemblance to the original British group formed in 1966. Still, Savoy Brown deserves credit simply for recording a respectable, even high-quality blues album over 35 years into its existence. Hot off a terrific solo acoustic release, 2001's Blues Like Midnight, a reinvigorated Simmonds signed with high-profile indie Blind Pig and churned out a classy set of smooth yet compelling electric blues. Not as soul-based as in the past, strains of funk ("(Hard Time) Believing in You"), R&B ("Can't Take It With You"), and rock ("When It Rains") help push the group beyond its lackluster and obscure efforts from the past decade. Savoy Brown was least successful when its muscular, amped-up boogie was forced and stilted; yet here the sound is warm and organic."



Tracklist:

01. When It Rains (03:04)
02. Can't Take It With You (03:12)
03. Meat Shaking Woman (03:50)
04. Strange Dream (04:51)
05. Keep on Rollin' (04:59)
06. Shake it All Night (05:36)
07. Pain of Love (04:25)
08. (Hard Time) Believing In You (04:16)
09. Memphis Last Night (06:46)
10. Can't Let You Go (04:51)


Exact Audio Copy V1.0 beta 6 from 9. April 2015

EAC extraction logfile from 25. May 2015, 16:12

Savoy Brown / Strange Dreams

Used drive : PLEXTOR DVDR PX-891SA Adapter: 0 ID: 2

Read mode : Secure
Utilize accurate stream : Yes
Defeat audio cache : Yes
Make use of C2 pointers : No

Read offset correction

: 6
Overread into Lead-In and Lead-Out : No
Fill up missing offset samples with silence : Yes
Delete leading and trailing silent blocks : No
Null samples used in CRC calculations : Yes
Used interface
: Installed external ASPI interface

Used output format : User Defined Encoder
Selected bitrate : 320 kBit/s
Quality : High
Add ID3 tag : No
Command line compressor : C:\Program Files\Exact Audio Copy 1.0 b6\Exact Audio Copy\Flac\flac.exe
Additional command line options : -V -8 -T "Date=%year%" -T "Genre=%genre%" %source%

TOC of the extracted CD Track | Start | Length | Start sector | End sector
1 | 0:00.00 | 3:04.26 | 0 | 13825 2 | 3:04.26 | 3:12.37 | 13826 | 28262 3 | 6:16.63 | 3:50.13 | 28263 | 45525 4 | 10:07.01 | 4:51.19 | 45526 | 67369 5 | 14:58.20 | 4:59.50 | 67370 | 89844 6 | 19:57.70 | 5:36.30 | 89845 | 115074 7 | 25:34.25 | 4:25.69 | 115075 | 135018 8 | 30:00.19 | 4:16.38 | 135019 | 154256 9 | 34:16.57 | 6:46.30 | 154257 | 184736
10 | 41:03.12 | 4:51.21 | 184737 | 206582

Range status and errors

Selected range Filename L:\Lossless Temp\Savoy Brown\2003. Savoy Brown - Strange Dreams (2003 Blind Pig Records, BPCD5082, USA)\Savoy Brown - Strange Dreams.wav Peak level 100.0 %
Extraction speed 7.8 X
Range quality 100.0 %
Test CRC 44DBCF3C
Copy CRC 44DBCF3C
Copy OK

No errors occurred


AccurateRip summary

Track 1 accurately ripped (confidence 7) [7D9BF8DA] (AR v2)
Track 2 accurately ripped (confidence 7) [1A321CD1] (AR v2)
Track 3 accurately ripped (confidence 7) [3D83506B] (AR v2)
Track 4 accurately ripped (confidence 7) [7CC42504] (AR v2)
Track 5 accurately ripped (confidence 7) [90C32922] (AR v2)
Track 6 accurately ripped (confidence 7) [704557B9] (AR v2)
Track 7 accurately ripped (confidence 7) [631E8E08] (AR v2)
Track 8 accurately ripped (confidence 7) [E554A0AE] (AR v2)
Track 9 accurately ripped (confidence 7) [AEBE0287] (AR v2)
Track 10 accurately ripped (confidence 7) [CE94C730] (AR v2)

All tracks accurately ripped

End of status report

==== Log checksum 8FB3CEB62AB326BFF8EA548EE529B23A0B5E2C9567CC9C8DDEC74302FDBB9B59 ====

foobar2000 1.3.8 / Dynamic Range Meter 1.1.1
log date: 2015-06-01 16:09:18

------
Analyzed: Savoy Brown / Strange Dreams
------

DR Peak RMS Duration Track
------
DR8 0.00 dB -8.86 dB 3:04 01-When It Rains
DR7 0.00 dB -8.75 dB 3:12 02-Can't Take It With You
DR8 0.00 dB -8.96 dB 3:50 03-Meat Shaking Woman
DR8 0.00 dB -8.99 dB 4:51 04-Strange Dream
DR7 0.00 dB -8.63 dB 5:00 05-Keep on Rollin'
DR8 0.00 dB -9.57 dB 5:36 06-Shake it All Night
DR7 0.00 dB -9.62 dB 4:26 07-Pain of Love
DR10 0.00 dB -12.03 dB 4:17 08-(Hard Time) Believing In You
DR8 0.00 dB -10.16 dB 6:46 09-Memphis Last Night
DR9 0.00 dB -12.83 dB 4:51 10-Can't Let You Go
------

Number of tracks: 10
Official DR value: DR8

Samplerate: 44100 Hz
Channels: 2
Bits per sample: 16
Bitrate: 862 kbps
Codec: FLAC

Savoy Brown - Strange Dreams (2003)

Savoy Brown - Strange Dreams (2003)

All thanks to original releaser - Swamp Fox




DOWNLOAD LINKS:
Buy Premium To Support Me & Get Resumable Support & Max Speed


Links are Interchangeable - No Password - Single Extraction

Direct Download

Tags: Strange, Dreams

Savoy Brown - Strange Dreams (2003) Download via Hotfile Rapidshare Fileserve Megaupload & FileSonic, Savoy Brown - Strange Dreams (2003) free torrent downloads included crack, serial, keygen.


Attention!Information

Members of Guest cannot leave comments.