Ricky Peterson ‎- Night Watch (1990)

Download Now

Ricky Peterson ‎- Night Watch (1990)

Ricky Peterson ‎- Night Watch (1990)
EAC Rip | FLAC (Tracks) +CUE, LOG | 323 MB | Covers Included
Funk / Soul | Label: Warner Bros. | Catalog Number: 8122-79568-1

"Peterson is a good keyboard player from a musical family. His technique merges blues, rock, and traditional jazz sounds, somewhat in the vein of George Benson but not as pop-oriented. In 1991, he issued a recording on Mesa/Bluemoon titled Smile Blue, with brothers Billy and Paul as part of the ensemble. Subsequent albums in the '90s included 1995's Tear Can Tell and 1999's Souvenir. During the 2000s he has appeared on numerous CDs by both jazz and pop artists, including Stevie Nicks, John Mayer, David Sanborn, Jessy J, Kirk Whalum, Al Jarreau, Patti Austin, and Larry Carlton. "

Exact Audio Copy V1.0 beta 3 from 29. August 2011

EAC extraction logfile from 29. May 2015, 5:32

Ricky Peterson / Night Watch

Used drive : ATAPI DVD A DH16A6L-C Adapter: 2 ID: 0

Read mode : Secure
Utilize accurate stream : Yes
Defeat audio cache : Yes
Make use of C2 pointers : No

Read offset correction

: 6
Overread into Lead-In and Lead-Out : No
Fill up missing offset samples with silence : Yes
Delete leading and trailing silent blocks : No
Null samples used in CRC calculations : Yes
Used interface
: Native Win32 interface for Win NT & 2000
Gap handling
: Appended to previous track

Used output format : User Defined Encoder
Selected bitrate : 1024 kBit/s
Quality : High
Add ID3 tag : No
Command line compressor : C:\Program Files\FLAC\flac.exe
Additional command line options : -8 -V -T "ARTIST=%artist%" -T "TITLE=%title%" -T "ALBUM=%albumtitle%" -T "DATE=%year%" -T "TRACKNUMBER=%tracknr%" -T "GENRE=%genre%" -T "PERFORMER=%albuminterpret%" -T "COMPOSER=%composer%" %haslyrics%--tag-from-file=LYRICS="%lyricsfile%"%haslyrics% -T "ALBUMARTIST=%albumartist%" -T "DISCNUMBER=%cdnumber%" -T "TOTALDISCS=%totalcds%" -T "TOTALTRACKS=%numtracks%" -T "COMMENT=%comment%" %source% -o %dest%

TOC of the extracted CD Track | Start | Length | Start sector | End sector
1 | 0:00.00 | 4:02.18 | 0 | 18167 2 | 4:02.18 | 5:47.07 | 18168 | 44199 3 | 9:49.25 | 3:44.36 | 44200 | 61035 4 | 13:33.61 | 3:42.25 | 61036 | 77710 5 | 17:16.11 | 4:18.19 | 77711 | 97079 6 | 21:34.30 | 4:11.72 | 97080 | 115976 7 | 25:46.27 | 4:36.60 | 115977 | 136736 8 | 30:23.12 | 3:58.70 | 136737 | 154656 9 | 34:22.07 | 5:45.63 | 154657 | 180594

Track 1 Filename F:\MUSIC\0\POSTS\Ricky Peterson ‎- Night Watch (1990)\01 - One Never Knows.wav Pre-gap length 0:00:02.00 Peak level 100.0 %
Extraction speed 3.2 X
Track quality 100.0 %
Test CRC CA3EC2D0
Copy CRC CA3EC2D0
Accurately ripped (confidence 2) [47E690C5] (AR v2)
Copy OK

Track 2 Filename F:\MUSIC\0\POSTS\Ricky Peterson ‎- Night Watch (1990)\02 - Night Watch.wav Pre-gap length 0:00:00.41 Peak level 100.0 %
Extraction speed 3.9 X
Track quality 100.0 %
Test CRC DC52420E
Copy CRC DC52420E
Accurately ripped (confidence 2) D3F0EF0 (AR v2)
Copy OK

Track 3 Filename F:\MUSIC\0\POSTS\Ricky Peterson ‎- Night Watch (1990)\03 - Livin' It Up.wav Pre-gap length 0:00:00.03 Peak level 100.0 %
Extraction speed 4.1 X
Track quality 100.0 %
Test CRC 24EA973E
Copy CRC 24EA973E
Accurately ripped (confidence 2) [AC3A5F1B] (AR v2)
Copy OK

Track 4 Filename F:\MUSIC\0\POSTS\Ricky Peterson ‎- Night Watch (1990)\04 - High Rise Drifter.wav Pre-gap length 0:00:00.11 Peak level 100.0 %
Extraction speed 4.3 X
Track quality 100.0 %
Test CRC B5BCA860
Copy CRC B5BCA860
Accurately ripped (confidence 2) [6F016DDD] (AR v2)
Copy OK

Track 5 Filename F:\MUSIC\0\POSTS\Ricky Peterson ‎- Night Watch (1990)\05 - Look Who's Lonely Now.wav Peak level 100.0 %
Extraction speed 4.7 X
Track quality 100.0 %
Test CRC 407997CA
Copy CRC 407997CA
Accurately ripped (confidence 2) [73BB8B51] (AR v2)
Copy OK

Track 6 Filename F:\MUSIC\0\POSTS\Ricky Peterson ‎- Night Watch (1990)\06 - Take A Chance.wav Peak level 100.0 %
Extraction speed 4.1 X
Track quality 99.9 %
Test CRC F0F2B91D
Copy CRC F0F2B91D
Accurately ripped (confidence 2) [45806472] (AR v2)
Copy OK

Track 7 Filename F:\MUSIC\0\POSTS\Ricky Peterson ‎- Night Watch (1990)\07 - Put Your Faith In Me.wav Pre-gap length 0:00:00.65 Peak level 100.0 %
Extraction speed 5.2 X
Track quality 100.0 %
Test CRC AF4AC3CA
Copy CRC AF4AC3CA
Accurately ripped (confidence 2) [ADCE0199] (AR v2)
Copy OK

Track 8 Filename F:\MUSIC\0\POSTS\Ricky Peterson ‎- Night Watch (1990)\08 - The Crazed Weasel.wav Pre-gap length 0:00:00.66 Peak level 100.0 %
Extraction speed 4.5 X
Track quality 99.9 %
Test CRC 33A359FE
Copy CRC 33A359FE
Accurately ripped (confidence 2) [F72D239B] (AR v2)
Copy OK

Track 9 Filename F:\MUSIC\0\POSTS\Ricky Peterson ‎- Night Watch (1990)\09 - Take My Heart Away.wav Pre-gap length 0:00:01.61 Peak level 100.0 %
Extraction speed 4.5 X
Track quality 99.9 %
Test CRC 48054FD8
Copy CRC 48054FD8
Accurately ripped (confidence 2) [815EA41E] (AR v2)
Copy OK

All tracks accurately ripped

No errors occurred

End of status report

==== Log checksum 745D313096E1DE8E1802A39CAC474B46A16EB18424D0BC2607714A3B36E98880 ====

Tracklist:
1. One Never Knows
2. Nightwatch
3. Livin' It Up
4. High Rise Drifter
5. Look Who's Lonely Now
6. Take A Chance
7. Put your faith in me
8. The Crazed Weasel
9. Take My Heart Away
DOWNLOAD LINKS
(Premium Recommended)


Links are Interchangeable - No Password - Single Extraction

Direct Download

Tags: Peterson

Ricky Peterson ‎- Night Watch (1990) Download via Hotfile Rapidshare Fileserve Megaupload & FileSonic, Ricky Peterson ‎- Night Watch (1990) free torrent downloads included crack, serial, keygen.


Attention!Information

Members of Guest cannot leave comments.