Cherry Poppin' Daddies - Please Return The Evening ...salute the music of the Rat Pack! (2014)

Download Now

Cherry Poppin' Daddies - Please Return The Evening ...salute the music of the Rat Pack! (2014)

Cherry Poppin' Daddies - Please Return The Evening ...salute the music of the Rat Pack! (2014)
EAC Rip | FLAC (Img) + Cue + Log ~ 361 Mb | MP3 CBR320 ~ 131 Mb
Scans Included (JPG, 600 dpi) | RAR 5% Recovery
Swing, Traditional Pop | Space Age Bachelor Pad Records #CPD-4235

"Please Return the Evening - the Cherry Poppin' Daddies Salute the Music of the Rat Pack is a tribute album and ninth album overall by American ska-swing band the Cherry Poppin' Daddies, released on July 29, 2014 by Space Age Bachelor Pad Records. Please Return the Evening consists entirely of cover versions of songs performed and popularized by the "Rat Pack" of Frank Sinatra, Dean Martin and Sammy Davis, Jr.. In stark contrast to the Daddies' previous studio albums, the album features no original material by Daddies frontman Steve Perry while also focusing exclusively on traditional swing and jazz music, without any of the ska, rockabilly or rock influences which typically make up much of the band's sound. Please Return the Evening was positively received by music critics..."

Official Website | Wiki | Discogs | All Music
***************

Cherry Poppin' Daddies - Please Return The Evening ...salute the music of the Rat Pack! (2014)

Track List:

01. The Best Is Yet To Come [02:49]
02. Come Fly With Me [03:10]
03. The Lady Is A Tramp [03:27]
04. Kick In The Head [02:26]
05. Fly Me To The Moon [02:45]
06. Live 'Til I Die [02:01]
07. Luck Be A Lady [05:00]
08. Under My Skin [03:34]
09. Mr. Success [02:42]
10. The Way You Look Tonight [03:24]
11. Ring-A-Ding [02:47]
12. Just One Of Those Things [03:13]
13. Boys Night Out [02:29]
14. Come Back To Me [02:43]
15. That's Life [03:06]

Exact Audio Copy V1.0 beta 3 from 29. August 2011

EAC extraction logfile from 30. May 2015, 15:07

Cherry Poppin' Daddies / Please Return The Evening

Used drive : PIONEER BD-RW BDR-TD03 Adapter: 0 ID: 1

Read mode : Secure
Utilize accurate stream : Yes
Defeat audio cache : Yes
Make use of C2 pointers : No

Read offset correction

: 667
Overread into Lead-In and Lead-Out : No
Fill up missing offset samples with silence : Yes
Delete leading and trailing silent blocks : No
Null samples used in CRC calculations : Yes
Used interface
: Native Win32 interface for Win NT & 2000

Used output format : User Defined Encoder
Selected bitrate : 768 kBit/s
Quality : High
Add ID3 tag : No
Command line compressor : C:\Program Files (x86)\Exact Audio Copy\FLAC\FLAC.EXE
Additional command line options : -6 -V -T "ARTIST=%artist%" -T "TITLE=%title%" -T "ALBUM=%albumtitle%" -T "DATE=%year%" -T "TRACKNUMBER=%tracknr%" -T "GENRE=%genre%" -T "COMMENT=%comment%" -T "BAND=%albuminterpret%" -T "ALBUMARTIST=%albuminterpret%" -T "COMPOSER=%composer%" %haslyrics%--tag-from-file=LYRICS="%lyricsfile%"%haslyrics% -T "DISCNUMBER=%cdnumber%" -T "TOTALDISCS=%totalcds%" -T "TOTALTRACKS=%numtracks%" %hascover%--picture="%coverfile%"%hascover% %source% -o %dest%

TOC of the extracted CD Track | Start | Length | Start sector | End sector
1 | 0:00.00 | 2:49.00 | 0 | 12674 2 | 2:49.00 | 3:09.29 | 12675 | 26878 3 | 5:58.29 | 3:26.46 | 26879 | 42374 4 | 9:25.00 | 2:25.31 | 42375 | 53280 5 | 11:50.31 | 2:44.32 | 53281 | 65612 6 | 14:34.63 | 2:00.29 | 65613 | 74641 7 | 16:35.17 | 4:59.36 | 74642 | 97102 8 | 21:34.53 | 3:33.02 | 97103 | 113079 9 | 25:07.55 | 2:41.17 | 113080 | 125171
10 | 27:48.72 | 3:23.36 | 125172 | 140432
11 | 31:12.33 | 2:46.38 | 140433 | 152920
12 | 33:58.71 | 3:12.06 | 152921 | 167326
13 | 37:11.02 | 2:28.31 | 167327 | 178457
14 | 39:39.33 | 2:42.23 | 178458 | 190630
15 | 42:21.56 | 3:05.33 | 190631 | 204538

Range status and errors

Selected range Filename C:\Users\Deris\Desktop\cherry14\Cherry Poppin' Daddies - Please Return The Evening.wav Peak level 99.7 %
Extraction speed 4.6 X
Range quality 100.0 %
Test CRC 94AF910F
Copy CRC 94AF910F
Copy OK

No errors occurred


AccurateRip summary

Track 1 accurately ripped (confidence 1) [FEDC1497] (AR v2)
Track 2 accurately ripped (confidence 1) [52C4B7A4] (AR v2)
Track 3 accurately ripped (confidence 1) [9B516291] (AR v2)
Track 4 accurately ripped (confidence 1) [81DDEFE1] (AR v2)
Track 5 accurately ripped (confidence 1) [3308FB1E] (AR v2)
Track 6 accurately ripped (confidence 1) [D77F21E0] (AR v2)
Track 7 accurately ripped (confidence 1) 59A9287 (AR v2)
Track 8 accurately ripped (confidence 1) [005FB84F] (AR v2)
Track 9 accurately ripped (confidence 1) [5676A5C8] (AR v2)
Track 10 accurately ripped (confidence 1) [A71EF998] (AR v2)
Track 11 accurately ripped (confidence 1) [68F582CA] (AR v2)
Track 12 accurately ripped (confidence 1) [C41B9A1D] (AR v2)
Track 13 accurately ripped (confidence 1) [D9988616] (AR v2)
Track 14 accurately ripped (confidence 1) [7B67D660] (AR v2)
Track 15 accurately ripped (confidence 1) [057E817F] (AR v2)

All tracks accurately ripped

End of status report

---- CUETools DB Plugin V2.1.3

[CTDB TOCID: YJ4xijM0mvfORQP9Q_7Udj7x108-] found, Submit result: YJ4xijM0mvfORQP9Q_7Udj7x108- has been confirmed
[9038d0e1] (2/2) Accurately ripped

==== Log checksum D42EA5DE3830D196343C326F2CB59BB118EEEE2A3DFA7160D89E8CE6BA9A151A ====

foobar2000 1.2.6 / Dynamic Range Meter 1.1.1
log date: 2015-06-02 00:29:59

------
Analyzed: Cherry Poppin' Daddies / Please Return The Evening
------

DR Peak RMS Duration Track
------
DR9 -0.02 dB -10.10 dB 2:49 01-The Best Is Yet To Come
DR8 -0.02 dB -8.72 dB 3:09 02-Come Fly With Me
DR8 -0.02 dB -9.56 dB 3:27 03-The Lady Is A Tramp
DR8 -0.02 dB -9.48 dB 2:25 04-Kick In The Head
DR9 -0.02 dB -11.51 dB 2:44 05-Fly Me To The Moon
DR8 -0.02 dB -9.53 dB 2:00 06-Live 'Til I Die
DR10 -0.02 dB -12.04 dB 4:59 07-Luck Be A Lady
DR10 -0.02 dB -11.83 dB 3:33 08-Under My Skin
DR10 -0.02 dB -11.09 dB 2:41 09-Mr. Success
DR9 -0.02 dB -11.12 dB 3:23 10-The Way You Look Tonight
DR10 -0.02 dB -11.34 dB 2:47 11-Ring-A-Ding
DR8 -0.02 dB -9.06 dB 3:12 12-Just One Of Those Things
DR10 -0.02 dB -11.42 dB 2:28 13-Boys Night Out
DR8 -0.02 dB -9.68 dB 2:42 14-Come Back To Me
DR8 -0.02 dB -9.04 dB 3:05 15-That's Life
------

Number of tracks: 15
Official DR value: DR9

Samplerate: 44100 Hz
Channels: 2
Bits per sample: 16
Bitrate: 992 kbps
Codec: FLAC

[CUETools log; Date: 02.06.2015 0:29:34; Version: 2.1.5]
[CTDB TOCID: YJ4xijM0mvfORQP9Q_7Udj7x108-] found.
Track | CTDB Status
1 | (3/3) Accurately ripped
2 | (3/3) Accurately ripped
3 | (3/3) Accurately ripped
4 | (3/3) Accurately ripped
5 | (3/3) Accurately ripped
6 | (3/3) Accurately ripped
7 | (3/3) Accurately ripped
8 | (3/3) Accurately ripped
9 | (3/3) Accurately ripped
10 | (3/3) Accurately ripped
11 | (3/3) Accurately ripped
12 | (3/3) Accurately ripped
13 | (3/3) Accurately ripped
14 | (3/3) Accurately ripped
15 | (3/3) Accurately ripped
[AccurateRip ID: 00191a49-011d2f68-cd0aa70f] found.
Track [ CRC | V2 ] Status
01 [93f8ff5f|fedc1497] (0+1/1) Accurately ripped
02 [de1e8090|52c4b7a4] (0+1/1) Accurately ripped
03 [ab07fc0f|9b516291] (0+1/1) Accurately ripped
04 [09c98d6d|81ddefe1] (0+1/1) Accurately ripped
05 [e2408621|3308fb1e] (0+1/1) Accurately ripped
06 1105ccb|d77f21e0 (0+1/1) Accurately ripped
07 [fea06af4|b59a9287] (0+1/1) Accurately ripped
08 [8933d523|005fb84f] (0+1/1) Accurately ripped
09 b45277f|5676a5c8 (0+1/1) Accurately ripped
10 fd819df|a71ef998 (0+1/1) Accurately ripped
11 [ef1ab59d|68f582ca] (0+1/1) Accurately ripped
12 [fa87a527|c41b9a1d] (0+1/1) Accurately ripped
13 d521d27|d9988616 (0+1/1) Accurately ripped
14 [76ef8977|7b67d660] (0+1/1) Accurately ripped
15 [721a2ec2|057e817f] (0+1/1) Accurately ripped

Track Peak [ CRC32 ] [W/O NULL] [ LOG ]
-- 99,7 [94AF910F] [2F61C6E7] CRC32
01 99,7 [4C8A9145] [0C6E1158]
02 99,7 [2275CAC5] [83BEB28F]
03 99,7 4119F68 [22E21904]
04 99,7 [F47A83A3] [6E484675]
05 99,7 [7FA4F09C] [2E93502E]
06 99,7 [1B780EDB] [F45F3A18]
07 99,7 [F3DFAF56] [2F298DEA]
08 99,7 [FCED32CF] [8FBFD52F]
09 99,7 [0E7A9B95] [1EB1ACA0]
10 99,7 [E5E5EEB8] [C384E937]
11 99,7 [24B3EA02] [078C695E]
12 99,7 [5749B07D] [1B0CF122]
13 99,7 [A3B20737] [CE2D35CA]
14 99,7 [87253760] 37D86A5
15 99,7 [725E4544] [D74E7D8D]

Cherry Poppin' Daddies - Please Return The Evening ...salute the music of the Rat Pack! (2014)


DOWNLOAD
(Premium Recommended)


All above links are interchangable. No password

Direct Download

Tags: Cherry, Poppin, Daddies, Please, Return, Evening, salute

Cherry Poppin' Daddies - Please Return The Evening ...salute the music of the Rat Pack! (2014) Download via Hotfile Rapidshare Fileserve Megaupload & FileSonic, Cherry Poppin' Daddies - Please Return The Evening ...salute the music of the Rat Pack! (2014) free torrent downloads included crack, serial, keygen.


Attention!Information

Members of Guest cannot leave comments.