Parliament - The Clones Of Dr. Funkenstein (1976)

Download Now

Parliament - The Clones Of Dr. Funkenstein (1976)

Parliament - The Clones Of Dr. Funkenstein (1976)
Funk | 1cd | EAC Rip | Flac + Cue + Log | covers
Casablanca 842 620-2 | rel: 1990 | 255Mb

Come 1976, and Parliament got up to its usual tricks in that particular incarnation -- right down to opening backwards-masked vocal weirdness plus sci-fi scenarios in the "Prelude," where "funk is its own reward." With Bernie Worrell and Fred Wesley splitting the horn arrangements and Clinton and Bootsy Collins taking care of the rest, the result is a concept album of sorts you can dance to. The clones get up and do their thing throughout, and if it's not The Wall, then that's all to its benefit.
The immediate downside of Clones is that it's a fairly one-note record -- every groove can just about be exchanged for any other one, unlike the wider variety apparent on other releases. Given Clinton and company's sheer work rate, something likely had to give and this is one of the stress points. There are a couple of stronger songs -- "I've Been Watching You (Move Your Sexy Body)" is classic slow jam territory. Not exactly Barry White, but hearing Parliament tone it down just enough pays off, especially with Worrell's drowsy, sensuous horn charts. "Funkin' for Fun," meanwhile, brings the album to a strong, lively end, with just enough in the call-and-response vocals and horns to spark some extra energy into the proceedings. As is the case with most mid- to late-'70s Parliament, things may not be as deep as what was done as Funkadelic, but only those who always explicitly value lyrical worth have any cause to complain. Listening to the silly squeals and burbles on "Dr. Funkenstein" itself is pure fun with sound, while the good doctor's speech is scientific craziness. As one voice says out of nowhere, "Kiss me on my ego!" Special bonus -- the utterly goofball cover photo, one of P-Funk's best. ~Allmusic

Track listing
01. Prelude (1:41)
02. Gamin' On Ya (3:01)
03. Dr. Funkenstein (5:47)
04. Children Of Productions (3:58)
05. Getten' To Know You (5:20)
06. Do That Stuff (4:49)
07. Everything Is On The One (3:48)
08. I've Been Watching You (Move Your Sexy Body) (6:01)
09. Funkin' For Fun (5:56)
~ (40:21)

Exact Audio Copy V0.99 prebeta 4 from 23. January 2008

EAC extraction logfile from 20. November 2008, 15:26

Parliament / The Clones Of Dr. Funkenstein

Used drive : TSSTcorpCDDVDW SH-S202J Adapter: 2 ID: 0

Read mode : Secure
Utilize accurate stream : Yes
Defeat audio cache : Yes
Make use of C2 pointers : No

Read offset correction

: 6
Overread into Lead-In and Lead-Out : No
Fill up missing offset samples with silence : Yes
Delete leading and trailing silent blocks : No
Null samples used in CRC calculations : Yes
Used interface
: Native Win32 interface for Win NT & 2000
Gap handling
: Appended to previous track

Used output format : User Defined Encoder
Selected bitrate : 192 kBit/s
Quality : High
Add ID3 tag : No
Command line compressor : C:\Program Files\Exact Audio Copy\Flac\flac.exe
Additional command line options : -V -8 -T "artist=%a" -T "title=%t" -T "album=%g" -T "date=%y" -T "tracknumber=%n" -T "genre=%m" %s

TOC of the extracted CD Track | Start | Length | Start sector | End sector
1 | 0:00.32 | 1:40.48 | 32 | 7579 2 | 1:41.05 | 3:01.07 | 7580 | 21161 3 | 4:42.12 | 5:46.68 | 21162 | 47179 4 | 10:29.05 | 3:57.62 | 47180 | 65016 5 | 14:26.67 | 5:19.73 | 65017 | 89014 6 | 19:46.65 | 4:49.20 | 89015 | 110709 7 | 24:36.10 | 3:47.60 | 110710 | 127794 8 | 28:23.70 | 6:01.15 | 127795 | 154884 9 | 34:25.10 | 5:56.05 | 154885 | 181589

Track 1 Filename C:\Music\Uploads\Parliament - The Clones Of Dr. Funkenstein (1976) [FLAC] (US Casablanca)\01 - Prelude.wav Pre-gap length 0:00:02.42 Peak level 68.5 %
Track quality 100.0 %
Test CRC 624115AB
Copy CRC 624115AB
Copy OK

Track 2 Filename C:\Music\Uploads\Parliament - The Clones Of Dr. Funkenstein (1976) [FLAC] (US Casablanca)\02 - Gamin' On Ya.wav Peak level 100.0 %
Track quality 100.0 %
Test CRC 4155F7F5
Copy CRC 4155F7F5
Copy OK

Track 3 Filename C:\Music\Uploads\Parliament - The Clones Of Dr. Funkenstein (1976) [FLAC] (US Casablanca)\03 - Dr. Funkenstein.wav Peak level 73.9 %
Track quality 100.0 %
Test CRC 338FFBF6
Copy CRC 338FFBF6
Copy OK

Track 4 Filename C:\Music\Uploads\Parliament - The Clones Of Dr. Funkenstein (1976) [FLAC] (US Casablanca)\04 - Children Of Productions.wav Pre-gap length 0:00:00.84 Peak level 72.9 %
Track quality 100.0 %
Test CRC B7E185A3
Copy CRC B7E185A3
Copy OK

Track 5 Filename C:\Music\Uploads\Parliament - The Clones Of Dr. Funkenstein (1976) [FLAC] (US Casablanca)\05 - Getten' To Know You.wav Pre-gap length 0:00:00.33 Peak level 68.1 %
Track quality 100.0 %
Test CRC 3D4815D4
Copy CRC 3D4815D4
Copy OK

Track 6 Filename C:\Music\Uploads\Parliament - The Clones Of Dr. Funkenstein (1976) [FLAC] (US Casablanca)\06 - Do That Stuff.wav Pre-gap length 0:00:01.44 Peak level 80.1 %
Track quality 100.0 %
Test CRC 67BCF0C9
Copy CRC 67BCF0C9
Copy OK

Track 7 Filename C:\Music\Uploads\Parliament - The Clones Of Dr. Funkenstein (1976) [FLAC] (US Casablanca)\07 - Everything Is On The One.wav Pre-gap length 0:00:00.84 Peak level 91.8 %
Track quality 99.9 %
Test CRC B75694B7
Copy CRC B75694B7
Copy OK

Track 8 Filename C:\Music\Uploads\Parliament - The Clones Of Dr. Funkenstein (1976) [FLAC] (US Casablanca)\08 - I've Been Watching You (Move Your Sexy Body).wav Pre-gap length 0:00:00.26 Peak level 55.2 %
Track quality 100.0 %
Test CRC 14840AD1
Copy CRC 14840AD1
Copy OK

Track 9 Filename C:\Music\Uploads\Parliament - The Clones Of Dr. Funkenstein (1976) [FLAC] (US Casablanca)\09 - Funkin' For Fun.wav Pre-gap length 0:00:00.33 Peak level 90.2 %
Track quality 100.0 %
Test CRC DE91B787
Copy CRC DE91B787
Copy OK

No errors occurred

End of status report

[CUETools log; Date: 2015.05.29. 15:01:38; Version: 2.1.5]
Pregap length 00:00:32.
[CTDB TOCID: .6C0uvDsNVFrQzzOlFy4w_IlrQg-] found.
Track | CTDB Status
1 | (8/8) Accurately ripped
2 | (8/8) Accurately ripped
3 | (8/8) Accurately ripped
4 | (8/8) Accurately ripped
5 | (8/8) Accurately ripped
6 | (8/8) Accurately ripped
7 | (8/8) Accurately ripped
8 | (8/8) Accurately ripped
9 | (8/8) Accurately ripped
[AccurateRip ID: 000c4866-005d9808-76097509] found.
Track [ CRC | V2 ] Status
01 [a6861251|77c6d052] (016+015/104) Accurately ripped
02 [3db10391|a2acd952] (016+015/104) Accurately ripped
03 017bb18|ae033632 (016+015/104) Accurately ripped
04 [feb54d8b|b60e094b] (016+015/103) Accurately ripped
05 [569a89f2|a10d7725] (016+015/105) Accurately ripped
06 [2f256473|8889dae5] (016+015/104) Accurately ripped
07 [3094e286|6159e56c] (016+015/100) Accurately ripped
08 [02e9ba84|1c660778] (016+015/100) Accurately ripped
09 [76a17c9d|49ce0ade] (016+015/098) Accurately ripped
Offsetted by -1115:
01 [9d28a8a0] (006/104) Accurately ripped
02 [ea89ec78] (006/104) Accurately ripped
03 [ffea1ca9] (006/104) Accurately ripped
04 [3dbf7e39] (006/103) Accurately ripped
05 [5762d0ea] (006/105) Accurately ripped
06 [8a5d9f7c] (006/104) Accurately ripped
07 [ef7260ad] (005/100) Accurately ripped
08 [d7745f1d] (006/100) Accurately ripped
09 [f46faf07] (006/098) Accurately ripped
Offsetted by -377:
01 [cc400019] (005/104) Accurately ripped
02 [c5623dea] (005/104) Accurately ripped
03 [964db66c] (005/104) Accurately ripped
04 [41f13aa5] (005/103) Accurately ripped
05 [77ee191a] (005/105) Accurately ripped
06 [9775b506] (005/104) Accurately ripped
07 [8b0f8803] (004/100) Accurately ripped
08 [76a13747] (004/100) Accurately ripped
09 [d0983218] (004/098) Accurately ripped
Offsetted by 86:
01 [a67479ee] (012/104) Accurately ripped
02 [7155457f] (011/104) Accurately ripped
03 [011b54bf] (012/104) Accurately ripped
04 [1565c3ef] (011/103) Accurately ripped
05 [416ba302] (011/105) Accurately ripped
06 [87648e81] (012/104) Accurately ripped
07 [df81bc18] (012/100) Accurately ripped
08 [cf643372] (011/100) Accurately ripped
09 [38a4e5cb] (010/098) Accurately ripped
Offsetted by 1609:
01 [4053ec30] (022/104) Accurately ripped
02 [f7be25eb] (021/104) Accurately ripped
03 [85fc92a2] (020/104) Accurately ripped
04 [06771251] (020/103) Accurately ripped
05 [5f1e264a] (022/105) Accurately ripped
06 [164620f0] (020/104) Accurately ripped
07 [9a0ddaf9] (019/100) Accurately ripped
08 [12542bd1] (021/100) Accurately ripped
09 [eee7414a] (019/098) Accurately ripped
Offsetted by -1046:
01 [f71a6027] (000/104) No match (V2 was not tested)
02 [2fa491e5] (000/104) No match (V2 was not tested)
03 [37cb5ecc] (000/104) No match (V2 was not tested)
04 [67c424a7] (000/103) No match (V2 was not tested)
05 [ab9976e2] (000/105) No match (V2 was not tested)
06 [ce310ba5] (000/104) No match (V2 was not tested)
07 [63fad3b4] (000/100) No match (V2 was not tested)
08 [c2f466d6] (000/100) No match (V2 was not tested)
09 [6e2e6458] (000/098) No match (V2 was not tested)

Track Peak [ CRC32 ] [W/O NULL] [ LOG ]
-- 100,0 ABFA853 [D92C90DE]
01 68,5 [624115AB] [2DDE5E43] CRC32
02 100,0 [4155F7F5] [24736631] CRC32
03 73,9 [338FFBF6] [E2DF2AD3] CRC32
04 72,9 7E185A3 19AA1A3 CRC32
05 68,1 [3D4815D4] D55BF07 CRC32
06 80,1 [67BCF0C9] [AE193E91] CRC32
07 91,8 75694B7 [C6F62792] CRC32
08 55,2 [14840AD1] [0E64561C] CRC32
09 90,2 [DE91B787] [58E2DD98] CRC32
DOWNLOAD LINKS:


No Password

Direct Download

Tags: Parliament, Clones, Funkenstein

Parliament - The Clones Of Dr. Funkenstein (1976) Download via Hotfile Rapidshare Fileserve Megaupload & FileSonic, Parliament - The Clones Of Dr. Funkenstein (1976) free torrent downloads included crack, serial, keygen.


Attention!Information

Members of Guest cannot leave comments.