Ray Conniff - Turn Around Look At Me / I Love How You Love Me (2LP on 1CD, 2002) Re Up

Download Now

Ray Conniff - Turn Around Look At Me / I Love How You Love Me (2LP on 1CD, 2002) Re Up

Ray Conniff
Turn Around Look At Me / I Love How You Love Me (2LP on 1CD, 2002)

EAC Rip | FLAC-TRACKS+CUE+LOG | 1CD | Scans | 65Min. | 385mb
Easy Listening Pop / Label: Sony Music Collectables
Catalogue: COL-CD-7458 / LP´s released in 1968/69

"This fine twofer CD has all the songs from two of Ray Conniff's outstanding record albums entitled "Turn Around Look at Me" and "I Love How You Love Me." That Ray Conniff chorus never sounded better and it's amazing how well Ray, the singers and those musicians all successfully handle these renditions of classic pop vocal tunes! The quality of the sound is excellent and the artwork incorporates the original record album artwork.
"

Ray Conniff - Turn Around Look At Me / I Love How You Love Me (2LP on 1CD, 2002) Re Up

Ray Conniff - Turn Around Look At Me / I Love How You Love Me (2LP on 1CD, 2002) Re Up

All of these tracks are winners although of course I have my favorites as you will, too. "Mrs. Robinson" features the chorus squarely in the spotlight and they never let go of a single superfluous note! The music fits in perfectly with their singing and this proves just how well Ray Conniff could arrange great music. "This Guy's In Love with You" and "Do You Know the Way to San Jose" are extremely well done; I could never tire of hearing these numbers with that signature Ray Conniff sound! In addition, "People" is easy on the ear and "Turn Around Look at Me" is a major highlight of the CD--and how's about that piano, percussion and more as they sing?
"Macarthur Park" gets the royal treatment from Ray and his colleagues; and "Can't Take My Eyes off You" charms me with its natural beauty. They handle complex tempo and key changes like the pros they were and always will remain! "Moon River," one of my very favorite classic pop vocal songs, has an extremely well written arrangement and these fine performers make it shine brighter than silver and gold! "Those Were the Days" is a rather poignant ballad; and "(You Are) My Special Angel" is very sweet.
"I Love How You Love Me" is simply exquisite; in particular that chorus really harmonizes to perfection--and beyond! "Wichita Lineman" is another fine track that shines bright while "Hey Jude" is nicely done. "Sunny" has a pop flavor to it that I enjoy so very much and there's yet another gem in "Abraham, Martin and John."

Track Listings :

1. Mrs. Robinson
2. Angel Of The Morning
3. This Guy's In Love With You
4. Do You Know The Way To San Jose
5. People
6. It Was A Very Good Year
7. Turn Around Look At Me
8. Macarthur Park
9. Can't Take My Eyes Off You
10. The Good,The Bad And The Ugly
11. Moon River
12. Those Were The Days
13. My Special Angel
14. Harper Valley P.T.A.
15. I Love How You Love Me
16. Hold Me Tight
17. Wichita Lineman
18. Hey Jude
19. Sunny
20. Little Green Apples
21. Scarborough Fair / Canticle
22. Abraham, Martin And John

Exact Audio Copy V1.0 beta 3 from 29. August 2011

EAC extraction logfile from 1. June 2015, 9:54

Ray Conniff / Turn Around Look At Me - I Love How You Love Me

Used drive : SONY DVD RW DRU-840A Adapter: 0 ID: 1

Read mode : Secure
Utilize accurate stream : Yes
Defeat audio cache : Yes
Make use of C2 pointers : No

Read offset correction

: 6
Overread into Lead-In and Lead-Out : No
Fill up missing offset samples with silence : Yes
Delete leading and trailing silent blocks : No
Null samples used in CRC calculations : Yes
Used interface
: Native Win32 interface for Win NT & 2000
Gap handling
: Not detected, thus appended to previous track

Used output format : User Defined Encoder
Selected bitrate : 320 kBit/s
Quality : High
Add ID3 tag : No
Command line compressor : C:\Archivos de programa\Exact Audio Copy\FLAC\FLAC.EXE
Additional command line options : -6 -V -T "ARTIST=%artist%" -T "TITLE=%title%" -T "ALBUM=%albumtitle%" -T "DATE=%year%" -T "TRACKNUMBER=%tracknr%" -T "GENRE=%genre%" -T "COMMENT=%comment%" -T "BAND=%albuminterpret%" -T "ALBUMARTIST=%albuminterpret%" -T "COMPOSER=%composer%" %haslyrics%--tag-from-file=LYRICS="%lyricsfile%"%haslyrics% -T "DISCNUMBER=%cdnumber%" -T "TOTALDISCS=%totalcds%" -T "TOTALTRACKS=%numtracks%" %hascover%--picture="%coverfile%"%hascover% %source% -o %dest%

TOC of the extracted CD Track | Start | Length | Start sector | End sector
1 | 0:00.00 | 2:27.37 | 0 | 11061 2 | 2:27.37 | 3:02.18 | 11062 | 24729 3 | 5:29.55 | 3:25.45 | 24730 | 40149 4 | 8:55.25 | 2:13.05 | 40150 | 50129 5 | 11:08.30 | 2:52.57 | 50130 | 63086 6 | 14:01.12 | 2:59.40 | 63087 | 76551 7 | 17:00.52 | 2:32.35 | 76552 | 87986 8 | 19:33.12 | 3:43.35 | 87987 | 104746 9 | 23:16.47 | 3:09.60 | 104747 | 118981
10 | 26:26.32 | 2:44.55 | 118982 | 131336
11 | 29:11.12 | 2:50.70 | 131337 | 144156
12 | 32:02.07 | 3:32.33 | 144157 | 160089
13 | 35:34.40 | 2:32.10 | 160090 | 171499
14 | 38:06.50 | 3:27.17 | 171500 | 187041
15 | 41:33.67 | 2:09.03 | 187042 | 196719
16 | 43:42.70 | 1:58.15 | 196720 | 205584
17 | 45:41.10 | 2:15.45 | 205585 | 215754
18 | 47:56.55 | 3:26.40 | 215755 | 231244
19 | 51:23.20 | 2:33.65 | 231245 | 242784
20 | 53:57.10 | 3:35.22 | 242785 | 258931
21 | 57:32.32 | 2:26.45 | 258932 | 269926
22 | 59:59.02 | 3:01.23 | 269927 | 283524

Track 1 Filename E:\MUSIC\My Music\Re subir\Ray Conniff\Ray Conniff - Turn Around Look At Me - I Love How You Love Me\CD\01 Mrs. Robinson.wav Peak level 89.0 %
Extraction speed 0.8 X
Track quality 99.6 %
Test CRC D8F61116
Copy CRC D8F61116
Cannot be verified as accurate (confidence 2) [4AE704C4], AccurateRip returned [9CD9DA87] (AR v2)
Copy OK

Track 2 Filename E:\MUSIC\My Music\Re subir\Ray Conniff\Ray Conniff - Turn Around Look At Me - I Love How You Love Me\CD\02 Angel Of The Morning.wav Peak level 74.1 %
Extraction speed 1.6 X
Track quality 99.9 %
Test CRC 0A288891
Copy CRC 0A288891
Cannot be verified as accurate (confidence 2) [609AA95A], AccurateRip returned [7009E6FE] (AR v2)
Copy OK

Track 3 Filename E:\MUSIC\My Music\Re subir\Ray Conniff\Ray Conniff - Turn Around Look At Me - I Love How You Love Me\CD\03 This Guy´s In Love With You.wav Peak level 78.6 %
Extraction speed 2.1 X
Track quality 100.0 %
Test CRC 5174956C
Copy CRC C31B2FC7
Cannot be verified as accurate (confidence 2) [F14531B5], AccurateRip returned [F1552840] (AR v2)
Copy OK

Track 4 Filename E:\MUSIC\My Music\Re subir\Ray Conniff\Ray Conniff - Turn Around Look At Me - I Love How You Love Me\CD\04 Do You Know The Way To San Jose.wav Peak level 89.5 %
Extraction speed 2.0 X
Track quality 100.0 %
Test CRC 98E4B3F6
Copy CRC 98E4B3F6
Cannot be verified as accurate (confidence 2) [D70775DA], AccurateRip returned [6538098E] (AR v2)
Copy OK

Track 5 Filename E:\MUSIC\My Music\Re subir\Ray Conniff\Ray Conniff - Turn Around Look At Me - I Love How You Love Me\CD\05 People.wav Peak level 78.5 %
Extraction speed 2.2 X
Track quality 100.0 %
Test CRC 40126D12
Copy CRC 40126D12
Cannot be verified as accurate (confidence 2) [F1A2DD79], AccurateRip returned [11D1550D] (AR v2)
Copy OK

Track 6 Filename E:\MUSIC\My Music\Re subir\Ray Conniff\Ray Conniff - Turn Around Look At Me - I Love How You Love Me\CD\06 It Was a Very Good Year.wav Peak level 67.7 %
Extraction speed 2.3 X
Track quality 100.0 %
Test CRC FCF7B5E0
Copy CRC FCF7B5E0
Cannot be verified as accurate (confidence 2) [873B0B75], AccurateRip returned [3E3DFCFC] (AR v2)
Copy OK

Track 7 Filename E:\MUSIC\My Music\Re subir\Ray Conniff\Ray Conniff - Turn Around Look At Me - I Love How You Love Me\CD\07 Turn Around Look At Me.wav Peak level 73.5 %
Extraction speed 2.4 X
Track quality 100.0 %
Test CRC C46E328D
Copy CRC C46E328D
Cannot be verified as accurate (confidence 2) [D1AD65CE], AccurateRip returned [C39DDD58] (AR v2)
Copy OK

Track 8 Filename E:\MUSIC\My Music\Re subir\Ray Conniff\Ray Conniff - Turn Around Look At Me - I Love How You Love Me\CD\08 Mac Arthur Park.wav Peak level 75.8 %
Extraction speed 2.6 X
Track quality 100.0 %
Test CRC 7382BB63
Copy CRC 7382BB63
Cannot be verified as accurate (confidence 2) [36C2B221], AccurateRip returned 84B24F7 (AR v2)
Copy OK

Track 9 Filename E:\MUSIC\My Music\Re subir\Ray Conniff\Ray Conniff - Turn Around Look At Me - I Love How You Love Me\CD\09 Can´t Take My Eyes Off You.wav Peak level 90.6 %
Extraction speed 2.7 X
Track quality 100.0 %
Test CRC A6495471
Copy CRC A6495471
Cannot be verified as accurate (confidence 2) [1A35DB55], AccurateRip returned [EF2693FB] (AR v2)
Copy OK

Track 10 Filename E:\MUSIC\My Music\Re subir\Ray Conniff\Ray Conniff - Turn Around Look At Me - I Love How You Love Me\CD\10 The Good The Bad The Ugly.wav Peak level 88.5 %
Extraction speed 2.7 X
Track quality 100.0 %
Test CRC 16547F29
Copy CRC 16547F29
Cannot be verified as accurate (confidence 2) [7FC30896], AccurateRip returned [A94F78EE] (AR v2)
Copy OK

Track 11 Filename E:\MUSIC\My Music\Re subir\Ray Conniff\Ray Conniff - Turn Around Look At Me - I Love How You Love Me\CD\11 Moon River.wav Peak level 80.0 %
Extraction speed 2.8 X
Track quality 100.0 %
Test CRC 17287800
Copy CRC 17287800
Cannot be verified as accurate (confidence 2) [3C1759D0], AccurateRip returned [669AC9F1] (AR v2)
Copy OK

Track 12 Filename E:\MUSIC\My Music\Re subir\Ray Conniff\Ray Conniff - Turn Around Look At Me - I Love How You Love Me\CD\12 Those Were The Days.wav Peak level 80.3 %
Extraction speed 3.0 X
Track quality 100.0 %
Test CRC 407C6126
Copy CRC 407C6126
Cannot be verified as accurate (confidence 2) [0825FB58], AccurateRip returned [978F3986] (AR v2)
Copy OK

Track 13 Filename E:\MUSIC\My Music\Re subir\Ray Conniff\Ray Conniff - Turn Around Look At Me - I Love How You Love Me\CD\13 My Special Angel.wav Peak level 90.7 %
Extraction speed 2.9 X
Track quality 100.0 %
Test CRC 2A78D5E5
Copy CRC 2A78D5E5
Cannot be verified as accurate (confidence 2) [E4E975DB], AccurateRip returned [EBE997FF] (AR v2)
Copy OK

Track 14 Filename E:\MUSIC\My Music\Re subir\Ray Conniff\Ray Conniff - Turn Around Look At Me - I Love How You Love Me\CD\14 Harper Valley P.T.A..wav Peak level 86.8 %
Extraction speed 3.1 X
Track quality 100.0 %
Test CRC C6D40D09
Copy CRC C6D40D09
Cannot be verified as accurate (confidence 2) [A17CABD2], AccurateRip returned [C5C2B8E4] (AR v2)
Copy OK

Track 15 Filename E:\MUSIC\My Music\Re subir\Ray Conniff\Ray Conniff - Turn Around Look At Me - I Love How You Love Me\CD\15 I Love How You Love Me.wav Peak level 73.3 %
Extraction speed 2.9 X
Track quality 100.0 %
Test CRC 75031E97
Copy CRC 75031E97
Cannot be verified as accurate (confidence 2) [5C47670B], AccurateRip returned B4A8318 (AR v2)
Copy OK

Track 16 Filename E:\MUSIC\My Music\Re subir\Ray Conniff\Ray Conniff - Turn Around Look At Me - I Love How You Love Me\CD\16 Hold Me Tight.wav Peak level 81.7 %
Extraction speed 1.8 X
Track quality 99.9 %
Test CRC B40C324A
Copy CRC B40C324A
Cannot be verified as accurate (confidence 2) [CA54E37C], AccurateRip returned [887A2850] (AR v2)
Copy OK

Track 17 Filename E:\MUSIC\My Music\Re subir\Ray Conniff\Ray Conniff - Turn Around Look At Me - I Love How You Love Me\CD\17 Wichita Lineman.wav Peak level 79.3 %
Extraction speed 3.0 X
Track quality 100.0 %
Test CRC FD1F0A6B
Copy CRC FD1F0A6B
Cannot be verified as accurate (confidence 2) [E76C764C], AccurateRip returned A9C0360 (AR v2)
Copy OK

Track 18 Filename E:\MUSIC\My Music\Re subir\Ray Conniff\Ray Conniff - Turn Around Look At Me - I Love How You Love Me\CD\18 Hey Jude.wav Peak level 78.6 %
Extraction speed 3.4 X
Track quality 100.0 %
Test CRC FC663DB8
Copy CRC FC663DB8
Cannot be verified as accurate (confidence 2) [CACB846F], AccurateRip returned [8242A2D6] (AR v2)
Copy OK

Track 19 Filename E:\MUSIC\My Music\Re subir\Ray Conniff\Ray Conniff - Turn Around Look At Me - I Love How You Love Me\CD\19 Sunny.wav Peak level 81.8 %
Extraction speed 3.3 X
Track quality 100.0 %
Test CRC 4CF33763
Copy CRC 4CF33763
Cannot be verified as accurate (confidence 2) [CE74B04F], AccurateRip returned [EE66CFF7] (AR v2)
Copy OK

Track 20 Filename E:\MUSIC\My Music\Re subir\Ray Conniff\Ray Conniff - Turn Around Look At Me - I Love How You Love Me\CD\20 Little Green Apples.wav Peak level 90.6 %
Extraction speed 3.5 X
Track quality 100.0 %
Test CRC 08B9D296
Copy CRC 08B9D296
Cannot be verified as accurate (confidence 2) [470C121D], AccurateRip returned [469998F6] (AR v2)
Copy OK

Track 21 Filename E:\MUSIC\My Music\Re subir\Ray Conniff\Ray Conniff - Turn Around Look At Me - I Love How You Love Me\CD\21 Scarborough Fair , Canticle.wav Peak level 86.2 %
Extraction speed 3.4 X
Track quality 100.0 %
Test CRC 3D3E4553
Copy CRC 3D3E4553
Cannot be verified as accurate (confidence 2) B22801B, AccurateRip returned 29C0F70 (AR v2)
Copy OK

Track 22 Filename E:\MUSIC\My Music\Re subir\Ray Conniff\Ray Conniff - Turn Around Look At Me - I Love How You Love Me\CD\22 Abraham , Martin And John.wav Peak level 93.2 %
Extraction speed 3.5 X
Track quality 100.0 %
Test CRC 61C218C5
Copy CRC 61C218C5
Cannot be verified as accurate (confidence 2) [D02C7335], AccurateRip returned [19981970] (AR v2)
Copy OK

No tracks could be verified as accurate
You may have a different pressing from the one(s) in the database

No errors occurred

End of status report

==== Log checksum 6669531A683FCB64B3E23E6C1715B0936B24DB2B55845B66F2994A6CC989DEE8 ====

--

Exact Audio Copy V1.0 beta 3 from 29. August 2011

EAC extraction logfile from 1. June 2015, 9:55

Ray Conniff / Turn Around Look At Me - I Love How You Love Me

Used drive : SONY DVD RW DRU-840A Adapter: 0 ID: 1

Read mode : Secure
Utilize accurate stream : Yes
Defeat audio cache : Yes
Make use of C2 pointers : No

Read offset correction

: 6
Overread into Lead-In and Lead-Out : No
Fill up missing offset samples with silence : Yes
Delete leading and trailing silent blocks : No
Null samples used in CRC calculations : Yes
Used interface
: Native Win32 interface for Win NT & 2000
Gap handling
: Not detected, thus appended to previous track

Used output format : User Defined Encoder
Selected bitrate : 320 kBit/s
Quality : High
Add ID3 tag : No
Command line compressor : C:\Archivos de programa\Exact Audio Copy\FLAC\FLAC.EXE
Additional command line options : -6 -V -T "ARTIST=%artist%" -T "TITLE=%title%" -T "ALBUM=%albumtitle%" -T "DATE=%year%" -T "TRACKNUMBER=%tracknr%" -T "GENRE=%genre%" -T "COMMENT=%comment%" -T "BAND=%albuminterpret%" -T "ALBUMARTIST=%albuminterpret%" -T "COMPOSER=%composer%" %haslyrics%--tag-from-file=LYRICS="%lyricsfile%"%haslyrics% -T "DISCNUMBER=%cdnumber%" -T "TOTALDISCS=%totalcds%" -T "TOTALTRACKS=%numtracks%" %hascover%--picture="%coverfile%"%hascover% %source% -o %dest%

TOC of the extracted CD Track | Start | Length | Start sector | End sector
1 | 0:00.00 | 2:27.37 | 0 | 11061 2 | 2:27.37 | 3:02.18 | 11062 | 24729 3 | 5:29.55 | 3:25.45 | 24730 | 40149 4 | 8:55.25 | 2:13.05 | 40150 | 50129 5 | 11:08.30 | 2:52.57 | 50130 | 63086 6 | 14:01.12 | 2:59.40 | 63087 | 76551 7 | 17:00.52 | 2:32.35 | 76552 | 87986 8 | 19:33.12 | 3:43.35 | 87987 | 104746 9 | 23:16.47 | 3:09.60 | 104747 | 118981
10 | 26:26.32 | 2:44.55 | 118982 | 131336
11 | 29:11.12 | 2:50.70 | 131337 | 144156
12 | 32:02.07 | 3:32.33 | 144157 | 160089
13 | 35:34.40 | 2:32.10 | 160090 | 171499
14 | 38:06.50 | 3:27.17 | 171500 | 187041
15 | 41:33.67 | 2:09.03 | 187042 | 196719
16 | 43:42.70 | 1:58.15 | 196720 | 205584
17 | 45:41.10 | 2:15.45 | 205585 | 215754
18 | 47:56.55 | 3:26.40 | 215755 | 231244
19 | 51:23.20 | 2:33.65 | 231245 | 242784
20 | 53:57.10 | 3:35.22 | 242785 | 258931
21 | 57:32.32 | 2:26.45 | 258932 | 269926
22 | 59:59.02 | 3:01.23 | 269927 | 283524

Track 1 Filename E:\MUSIC\My Music\Re subir\Ray Conniff\Ray Conniff - Turn Around Look At Me - I Love How You Love Me\CD\01 Mrs. Robinson.wav Peak level 89.0 %
Extraction speed 0.8 X
Track quality 99.6 %
Test CRC D8F61116
Copy CRC D8F61116
Cannot be verified as accurate (confidence 2) [4AE704C4], AccurateRip returned [9CD9DA87] (AR v2)
Copy OK

Track 2 Filename E:\MUSIC\My Music\Re subir\Ray Conniff\Ray Conniff - Turn Around Look At Me - I Love How You Love Me\CD\02 Angel Of The Morning.wav Peak level 74.1 %
Extraction speed 1.6 X
Track quality 99.9 %
Test CRC 0A288891
Copy CRC 0A288891
Cannot be verified as accurate (confidence 2) [609AA95A], AccurateRip returned [7009E6FE] (AR v2)
Copy OK

Track 3 Filename E:\MUSIC\My Music\Re subir\Ray Conniff\Ray Conniff - Turn Around Look At Me - I Love How You Love Me\CD\03 This Guy´s In Love With You.wav Peak level 78.6 %
Extraction speed 2.1 X
Track quality 100.0 %
Test CRC 5174956C
Copy CRC C31B2FC7
Cannot be verified as accurate (confidence 2) [F14531B5], AccurateRip returned [F1552840] (AR v2)
Copy OK

Track 4 Filename E:\MUSIC\My Music\Re subir\Ray Conniff\Ray Conniff - Turn Around Look At Me - I Love How You Love Me\CD\04 Do You Know The Way To San Jose.wav Peak level 89.5 %
Extraction speed 2.0 X
Track quality 100.0 %
Test CRC 98E4B3F6
Copy CRC 98E4B3F6
Cannot be verified as accurate (confidence 2) [D70775DA], AccurateRip returned [6538098E] (AR v2)
Copy OK

Track 5 Filename E:\MUSIC\My Music\Re subir\Ray Conniff\Ray Conniff - Turn Around Look At Me - I Love How You Love Me\CD\05 People.wav Peak level 78.5 %
Extraction speed 2.2 X
Track quality 100.0 %
Test CRC 40126D12
Copy CRC 40126D12
Cannot be verified as accurate (confidence 2) [F1A2DD79], AccurateRip returned [11D1550D] (AR v2)
Copy OK

Track 6 Filename E:\MUSIC\My Music\Re subir\Ray Conniff\Ray Conniff - Turn Around Look At Me - I Love How You Love Me\CD\06 It Was a Very Good Year.wav Peak level 67.7 %
Extraction speed 2.3 X
Track quality 100.0 %
Test CRC FCF7B5E0
Copy CRC FCF7B5E0
Cannot be verified as accurate (confidence 2) [873B0B75], AccurateRip returned [3E3DFCFC] (AR v2)
Copy OK

Track 7 Filename E:\MUSIC\My Music\Re subir\Ray Conniff\Ray Conniff - Turn Around Look At Me - I Love How You Love Me\CD\07 Turn Around Look At Me.wav Peak level 73.5 %
Extraction speed 2.4 X
Track quality 100.0 %
Test CRC C46E328D
Copy CRC C46E328D
Cannot be verified as accurate (confidence 2) [D1AD65CE], AccurateRip returned [C39DDD58] (AR v2)
Copy OK

Track 8 Filename E:\MUSIC\My Music\Re subir\Ray Conniff\Ray Conniff - Turn Around Look At Me - I Love How You Love Me\CD\08 Mac Arthur Park.wav Peak level 75.8 %
Extraction speed 2.6 X
Track quality 100.0 %
Test CRC 7382BB63
Copy CRC 7382BB63
Cannot be verified as accurate (confidence 2) [36C2B221], AccurateRip returned 84B24F7 (AR v2)
Copy OK

Track 9 Filename E:\MUSIC\My Music\Re subir\Ray Conniff\Ray Conniff - Turn Around Look At Me - I Love How You Love Me\CD\09 Can´t Take My Eyes Off You.wav Peak level 90.6 %
Extraction speed 2.7 X
Track quality 100.0 %
Test CRC A6495471
Copy CRC A6495471
Cannot be verified as accurate (confidence 2) [1A35DB55], AccurateRip returned [EF2693FB] (AR v2)
Copy OK

Track 10 Filename E:\MUSIC\My Music\Re subir\Ray Conniff\Ray Conniff - Turn Around Look At Me - I Love How You Love Me\CD\10 The Good The Bad The Ugly.wav Peak level 88.5 %
Extraction speed 2.7 X
Track quality 100.0 %
Test CRC 16547F29
Copy CRC 16547F29
Cannot be verified as accurate (confidence 2) [7FC30896], AccurateRip returned [A94F78EE] (AR v2)
Copy OK

Track 11 Filename E:\MUSIC\My Music\Re subir\Ray Conniff\Ray Conniff - Turn Around Look At Me - I Love How You Love Me\CD\11 Moon River.wav Peak level 80.0 %
Extraction speed 2.8 X
Track quality 100.0 %
Test CRC 17287800
Copy CRC 17287800
Cannot be verified as accurate (confidence 2) [3C1759D0], AccurateRip returned [669AC9F1] (AR v2)
Copy OK

Track 12 Filename E:\MUSIC\My Music\Re subir\Ray Conniff\Ray Conniff - Turn Around Look At Me - I Love How You Love Me\CD\12 Those Were The Days.wav Peak level 80.3 %
Extraction speed 3.0 X
Track quality 100.0 %
Test CRC 407C6126
Copy CRC 407C6126
Cannot be verified as accurate (confidence 2) [0825FB58], AccurateRip returned [978F3986] (AR v2)
Copy OK

Track 13 Filename E:\MUSIC\My Music\Re subir\Ray Conniff\Ray Conniff - Turn Around Look At Me - I Love How You Love Me\CD\13 My Special Angel.wav Peak level 90.7 %
Extraction speed 2.9 X
Track quality 100.0 %
Test CRC 2A78D5E5
Copy CRC 2A78D5E5
Cannot be verified as accurate (confidence 2) [E4E975DB], AccurateRip returned [EBE997FF] (AR v2)
Copy OK

Track 14 Filename E:\MUSIC\My Music\Re subir\Ray Conniff\Ray Conniff - Turn Around Look At Me - I Love How You Love Me\CD\14 Harper Valley P.T.A..wav Peak level 86.8 %
Extraction speed 3.1 X
Track quality 100.0 %
Test CRC C6D40D09
Copy CRC C6D40D09
Cannot be verified as accurate (confidence 2) [A17CABD2], AccurateRip returned [C5C2B8E4] (AR v2)
Copy OK

Track 15 Filename E:\MUSIC\My Music\Re subir\Ray Conniff\Ray Conniff - Turn Around Look At Me - I Love How You Love Me\CD\15 I Love How You Love Me.wav Peak level 73.3 %
Extraction speed 2.9 X
Track quality 100.0 %
Test CRC 75031E97
Copy CRC 75031E97
Cannot be verified as accurate (confidence 2) [5C47670B], AccurateRip returned B4A8318 (AR v2)
Copy OK

Track 16 Filename E:\MUSIC\My Music\Re subir\Ray Conniff\Ray Conniff - Turn Around Look At Me - I Love How You Love Me\CD\16 Hold Me Tight.wav Peak level 81.7 %
Extraction speed 1.8 X
Track quality 99.9 %
Test CRC B40C324A
Copy CRC B40C324A
Cannot be verified as accurate (confidence 2) [CA54E37C], AccurateRip returned [887A2850] (AR v2)
Copy OK

Track 17 Filename E:\MUSIC\My Music\Re subir\Ray Conniff\Ray Conniff - Turn Around Look At Me - I Love How You Love Me\CD\17 Wichita Lineman.wav Peak level 79.3 %
Extraction speed 3.0 X
Track quality 100.0 %
Test CRC FD1F0A6B
Copy CRC FD1F0A6B
Cannot be verified as accurate (confidence 2) [E76C764C], AccurateRip returned A9C0360 (AR v2)
Copy OK

Track 18 Filename E:\MUSIC\My Music\Re subir\Ray Conniff\Ray Conniff - Turn Around Look At Me - I Love How You Love Me\CD\18 Hey Jude.wav Peak level 78.6 %
Extraction speed 3.4 X
Track quality 100.0 %
Test CRC FC663DB8
Copy CRC FC663DB8
Cannot be verified as accurate (confidence 2) [CACB846F], AccurateRip returned [8242A2D6] (AR v2)
Copy OK

Track 19 Filename E:\MUSIC\My Music\Re subir\Ray Conniff\Ray Conniff - Turn Around Look At Me - I Love How You Love Me\CD\19 Sunny.wav Peak level 81.8 %
Extraction speed 3.3 X
Track quality 100.0 %
Test CRC 4CF33763
Copy CRC 4CF33763
Cannot be verified as accurate (confidence 2) [CE74B04F], AccurateRip returned [EE66CFF7] (AR v2)
Copy OK

Track 20 Filename E:\MUSIC\My Music\Re subir\Ray Conniff\Ray Conniff - Turn Around Look At Me - I Love How You Love Me\CD\20 Little Green Apples.wav Peak level 90.6 %
Extraction speed 3.5 X
Track quality 100.0 %
Test CRC 08B9D296
Copy CRC 08B9D296
Cannot be verified as accurate (confidence 2) [470C121D], AccurateRip returned [469998F6] (AR v2)
Copy OK

Track 21 Filename E:\MUSIC\My Music\Re subir\Ray Conniff\Ray Conniff - Turn Around Look At Me - I Love How You Love Me\CD\21 Scarborough Fair , Canticle.wav Peak level 86.2 %
Extraction speed 3.4 X
Track quality 100.0 %
Test CRC 3D3E4553
Copy CRC 3D3E4553
Cannot be verified as accurate (confidence 2) B22801B, AccurateRip returned 29C0F70 (AR v2)
Copy OK

Track 22 Filename E:\MUSIC\My Music\Re subir\Ray Conniff\Ray Conniff - Turn Around Look At Me - I Love How You Love Me\CD\22 Abraham , Martin And John.wav Peak level 93.2 %
Extraction speed 3.5 X
Track quality 100.0 %
Test CRC 61C218C5
Copy CRC 61C218C5
Cannot be verified as accurate (confidence 2) [D02C7335], AccurateRip returned [19981970] (AR v2)
Copy OK

No tracks could be verified as accurate
You may have a different pressing from the one(s) in the database

No errors occurred

End of status report

==== Log checksum A0FF0C574758D06104EE1C18AD9E5AB05E31E5058DD681C9BDBEA1655794C31F ====
DOWNLOAD:
Buy Premium To Support Me & Get Resumable Support & Max Speed


Links are Interchangeable - No Password

Direct Download

Tags: Conniff

Ray Conniff - Turn Around Look At Me / I Love How You Love Me (2LP on 1CD, 2002) Re Up Download via Hotfile Rapidshare Fileserve Megaupload & FileSonic, Ray Conniff - Turn Around Look At Me / I Love How You Love Me (2LP on 1CD, 2002) Re Up free torrent downloads included crack, serial, keygen.


Attention!Information

Members of Guest cannot leave comments.