Jacula - Discography [3 Studio Albums] (1969-2011)

Download Now

Jacula - Discography [3 Studio Albums] (1969-2011)

Jacula - Discography [3 Studio Albums] (1969-2011)
EAC Rip | FLAC (tracks+.cue+log) - 969 MB | MP3 CBR 320 kbps (LAME 3.93) - 575 MB | Covers - 238 MB
Genre: Progressive Rock | RAR 3% Rec. | Label: Black Widow Records

"In 1968 the composer Antonio Bartoccetti founded the group Jacula, with a view to transform into music a series of theological-philosophical and esoteric observations. Jacula released the albums "In Cauda Semper Stat Venenum", "Tardo Pede in Magiam Versus". The project would end in 1972, then evolve into "Antonius Rex" and more album would follow under that name. But after nearly four decades, Jacula released their third studio album Pre Viam in May, 2011. In Cauda Semper Stat Venenum (1969). The beginning of the way towards an inner search. Mysterious worlds, evocative church organ, innovative guitar, involving voices and lyrics, creative piano and synth, rhythms with tympanis..."

Jacula - Discography [3 Studio Albums] (1969-2011)

Jacula - In Cauda Semper Stat Venenum (1969) [Reissue 2001]
EAC Rip | FLAC (tracks+.cue+log) - 191 MB | MP3 CBR 320 kbps (LAME 3.93) - 88 MB | Covers - 11 MB
Genre: Progressive Rock | RAR 3% Rec. | Label: Black Widow Records (BWRCD 051-2)

Tracklist:
01. Ajtus
02. Magister Dixit
03. Triumphatus Sad
04. Veneficium
05. Initiatjo
06. In Cauda Semper Stat Venenum

Total time: 37:26

Exact Audio Copy V1.0 beta 1 from 15. November 2010

EAC extraction logfile from 23. June 2011, 2:15

Jacula / In Cauda Semper Stat Venenum

Used drive : _NEC DVD_RW ND-3540A Adapter: 3 ID: 1

Read mode : Secure
Utilize accurate stream : Yes
Defeat audio cache : Yes
Make use of C2 pointers : No

Read offset correction

: 48
Overread into Lead-In and Lead-Out : No
Fill up missing offset samples with silence : Yes
Delete leading and trailing silent blocks : No
Null samples used in CRC calculations : No
Used interface
: Native Win32 interface for Win NT & 2000
Gap handling
: Appended to previous track

Used output format : User Defined Encoder
Selected bitrate : 1024 kBit/s
Quality : High
Add ID3 tag : Yes
Command line compressor : C:\Program Files\FLAC\flac.exe
Additional command line options : -6 -V -T "ARTIST=%a" -T "TITLE=%t" -T "ALBUM=%g" -T "DATE=%y" -T "TRACKNUMBER=%n" -T "GENRE=%m" -T "COMMENT=%e" %s -o %d

TOC of the extracted CD Track | Start | Length | Start sector | End sector
1 | 0:00.00 | 4:06.12 | 0 | 18461 2 | 4:06.12 | 10:30.43 | 18462 | 65754 3 | 14:36.55 | 3:34.52 | 65755 | 81856 4 | 18:11.32 | 2:21.40 | 81857 | 92471 5 | 20:32.72 | 6:48.03 | 92472 | 123074 6 | 27:21.00 | 10:05.40 | 123075 | 168489

Track 1 Filename D:\Music\olaf_alien\Jacula - In Cauda Semper Stat Venenum (1969, Gnome - 2001, Black Widow)\01 - Ritus.wav Pre-gap length 0:00:02.00 Peak level 99.9 %
Extraction speed 4.7 X
Track quality 100.0 %
Test CRC CE6B7D96
Copy CRC CE6B7D96
Cannot be verified as accurate (confidence 3) [F851ACBE], AccurateRip returned [EA85EBFE]
Copy OK

Track 2 Filename D:\Music\olaf_alien\Jacula - In Cauda Semper Stat Venenum (1969, Gnome - 2001, Black Widow)\02 - Magister Dixit.wav Peak level 86.1 %
Extraction speed 5.6 X
Track quality 99.9 %
Test CRC 3FA936D0
Copy CRC 3FA936D0
Cannot be verified as accurate (confidence 3) [43A517B5], AccurateRip returned [E3C91F49]
Copy OK

Track 3 Filename D:\Music\olaf_alien\Jacula - In Cauda Semper Stat Venenum (1969, Gnome - 2001, Black Widow)\03 - Triumpratus Sad.wav Peak level 81.0 %
Extraction speed 6.2 X
Track quality 100.0 %
Test CRC 39336E5E
Copy CRC 39336E5E
Cannot be verified as accurate (confidence 3) [54F0AE97], AccurateRip returned [62E43363]
Copy OK

Track 4 Filename D:\Music\olaf_alien\Jacula - In Cauda Semper Stat Venenum (1969, Gnome - 2001, Black Widow)\04 - Veneficium.wav Peak level 98.1 %
Extraction speed 5.9 X
Track quality 100.0 %
Test CRC 88F36D6F
Copy CRC 88F36D6F
Cannot be verified as accurate (confidence 3) [9CF55DA7], AccurateRip returned [06895CB3]
Copy OK

Track 5 Filename D:\Music\olaf_alien\Jacula - In Cauda Semper Stat Venenum (1969, Gnome - 2001, Black Widow)\05 - Initatio.wav Peak level 84.5 %
Extraction speed 7.3 X
Track quality 100.0 %
Test CRC 86DB8BC2
Copy CRC 86DB8BC2
Cannot be verified as accurate (confidence 3) [3C5F2BD9], AccurateRip returned [95A70C0D]
Copy OK

Track 6 Filename D:\Music\olaf_alien\Jacula - In Cauda Semper Stat Venenum (1969, Gnome - 2001, Black Widow)\06 - In Cauda Semper.wav Peak level 97.7 %
Extraction speed 8.3 X
Track quality 100.0 %
Test CRC 4D0A35BC
Copy CRC 4D0A35BC
Cannot be verified as accurate (confidence 3) [73805FDD], AccurateRip returned [0F75E035]
Copy OK

No tracks could be verified as accurate
You may have a different pressing from the one(s) in the database

No errors occurred

End of status report

[CUETools log; Date: 02.06.2015 17:30:29; Version: 2.1.4]
[CTDB TOCID: 1C1X9Ba.sBfcdRzB6md0px5hMEU-] found.
Track | CTDB Status
1 | (1/1) Accurately ripped
2 | (1/1) Accurately ripped
3 | (1/1) Accurately ripped
4 | (1/1) Accurately ripped
5 | (1/1) Accurately ripped
6 | (1/1) Accurately ripped
[AccurateRip ID: 000864df-002ce3a2-4c08c606] found.
Track [ CRC | V2 ] Status
01 [f851acbe|408bd250] (0+0/3) No match
02 [43a517b5|2b7d6f62] (0+0/3) No match
03 [54f0ae97|606a76ba] (0+0/3) No match
04 [9cf55da7|ba447892] (0+0/3) No match
05 [3c5f2bd9|47819785] (0+0/3) No match
06 [73805fdd|4f5e1c52] (0+0/3) No match
Offsetted by 676:
01 [ea85ebfe] (3/3) Accurately ripped
02 [e3c91f49] (3/3) Accurately ripped
03 [62e43363] (3/3) Accurately ripped
04 [06895cb3] (3/3) Accurately ripped
05 [95a70c0d] (3/3) Accurately ripped
06 [0f75e035] (3/3) Accurately ripped

Track Peak [ CRC32 ] [W/O NULL] [ LOG ]
-- 99,9 [3BFAB9A1] [378BFA98]
01 99,9 [51C80F4F] [CE6B7D96] W/O NULL
02 86,1 [E75CF03D] [3FA936D0] W/O NULL
03 81,0 [3C91C913] [39336E5E] W/O NULL
04 98,1 [69F11431] [88F36D6F] W/O NULL
05 84,5 [929BCAE6] [86DB8BC2] W/O NULL
06 97,7 [75D7BD21] [4D0A35BC] W/O NULL



Jacula - Discography [3 Studio Albums] (1969-2011)

Jacula - Tardo Pede in Magiam Versus (1972) [Reissue 2007]
EAC Rip | FLAC (tracks+.cue+log) - 404 MB | MP3 CBR 320 kbps (LAME 3.93) - 267 MB | Covers - 116 MB
Genre: Progressive Rock | RAR 3% Rec. | Label: Black Widow Records (BWRCD 108-2)

Tracklist:
01. U.F.D.E.M.
02. Praesentia Domini
03. Jacula Valzer
04. Absolution
05. Long Black Magic Night
06. In Old Castle
+ Video "Absolution"

Total time: 56:57

Exact Audio Copy V1.0 beta 1 from 15. November 2010

EAC extraction logfile from 23. June 2011, 11:34

Jacula / Tardo Pede In Magiam Versus

Used drive : _NEC DVD_RW ND-3540A Adapter: 3 ID: 1

Read mode : Secure
Utilize accurate stream : Yes
Defeat audio cache : Yes
Make use of C2 pointers : No

Read offset correction

: 48
Overread into Lead-In and Lead-Out : No
Fill up missing offset samples with silence : Yes
Delete leading and trailing silent blocks : No
Null samples used in CRC calculations : No
Used interface
: Native Win32 interface for Win NT & 2000
Gap handling
: Appended to previous track

Used output format : User Defined Encoder
Selected bitrate : 1024 kBit/s
Quality : High
Add ID3 tag : Yes
Command line compressor : C:\Program Files\FLAC\flac.exe
Additional command line options : -6 -V -T "ARTIST=%a" -T "TITLE=%t" -T "ALBUM=%g" -T "DATE=%y" -T "TRACKNUMBER=%n" -T "GENRE=%m" -T "COMMENT=%e" %s -o %d

TOC of the extracted CD Track | Start | Length | Start sector | End sector
1 | 0:00.00 | 9:04.31 | 0 | 40830 2 | 9:04.31 | 10:58.63 | 40831 | 90243 3 | 20:03.19 | 6:26.67 | 90244 | 119260 4 | 26:30.11 | 4:59.71 | 119261 | 141756 5 | 31:30.07 | 6:25.30 | 141757 | 170661 6 | 37:55.37 | 9:46.19 | 170662 | 214630 7 | 50:13.56 | 17:13.02 | 226031 | 303507

Track 1 Filename D:\Music\olaf_alien\Jacula - Tardo Pede in Magiam Versus (1972, Rogers - 2007, Black Widow)\01 - U.F.D.E.M..wav Pre-gap length 0:00:02.00 Peak level 74.7 %
Extraction speed 5.3 X
Track quality 100.0 %
Test CRC CF6E701F
Copy CRC CF6E701F
Accurately ripped (confidence 1) [38E4929C]
Copy OK

Track 2 Filename D:\Music\olaf_alien\Jacula - Tardo Pede in Magiam Versus (1972, Rogers - 2007, Black Widow)\02 - Praesentia Domini.wav Pre-gap length 0:00:02.00 Peak level 99.1 %
Extraction speed 6.2 X
Track quality 100.0 %
Test CRC F6F1D85D
Copy CRC F6F1D85D
Accurately ripped (confidence 1) [0DA7139F]
Copy OK

Track 3 Filename D:\Music\olaf_alien\Jacula - Tardo Pede in Magiam Versus (1972, Rogers - 2007, Black Widow)\03 - Jacula Varzer.wav Pre-gap length 0:00:02.00 Peak level 64.0 %
Extraction speed 7.2 X
Track quality 100.0 %
Test CRC 34E4B0A6
Copy CRC 34E4B0A6
Accurately ripped (confidence 1) [AD256899]
Copy OK

Track 4 Filename D:\Music\olaf_alien\Jacula - Tardo Pede in Magiam Versus (1972, Rogers - 2007, Black Widow)\04 - Absolution.wav Pre-gap length 0:00:02.00 Peak level 79.0 %
Extraction speed 7.6 X
Track quality 100.0 %
Test CRC EF49D16E
Copy CRC EF49D16E
Accurately ripped (confidence 1) [1F274901]
Copy OK

Track 5 Filename D:\Music\olaf_alien\Jacula - Tardo Pede in Magiam Versus (1972, Rogers - 2007, Black Widow)\05 - Long Black Magic Night.wav Pre-gap length 0:00:02.00 Peak level 83.1 %
Extraction speed 8.1 X
Track quality 100.0 %
Test CRC 098FD68B
Copy CRC 098FD68B
Accurately ripped (confidence 1) [2B018FF3]
Copy OK

Track 6 Filename D:\Music\olaf_alien\Jacula - Tardo Pede in Magiam Versus (1972, Rogers - 2007, Black Widow)\06 - In Old Castle.wav Pre-gap length 0:00:02.00 Peak level 79.2 %
Extraction speed 8.8 X
Track quality 100.0 %
Test CRC 84D71F79
Copy CRC 84D71F79
Accurately ripped (confidence 1) [19369681]
Copy OK

All tracks accurately ripped

No errors occurred

End of status report

[CUETools log; Date: 02.06.2015 17:31:00; Version: 2.1.4]
CD-Extra data track length 17:13:02.
[CTDB TOCID: GJDIn6H_uxZNK10Rav5iG1Q_47w-] found.
Track | CTDB Status
1 | (2/2) Accurately ripped
2 | (2/2) Accurately ripped
3 | (1/2) Accurately ripped, or (1/2) differs in 444 samples @05:25:48,05:31:00-05:31:01,05:31:59-05:31:60,05:31:74-05:32:00,05:32:59-05:32:60,05:32:74-05:33:00
4 | (2/2) Accurately ripped
5 | (2/2) Accurately ripped
6 | (2/2) Accurately ripped
[AccurateRip ID: 000d37d7-004783a0-590fce07] found.
Track [ CRC | V2 ] Status
01 [38e4929c|734587ec] (1+1/3) Accurately ripped
02 [0da7139f|d4a03a1c] (1+1/3) Accurately ripped
03 [ad256899|f30e7fe3] (1+1/3) Accurately ripped
04 [1f274901|aff74491] (1+1/3) Accurately ripped
05 [2b018ff3|8df0d495] (1+1/3) Accurately ripped
06 [19369681|9520915e] (1+1/3) Accurately ripped

Track Peak [ CRC32 ] [W/O NULL] [ LOG ]
-- 99,1 [FEED453D] [A11BB5CB]
01 74,7 [51BD9CEB] [CF6E701F] W/O NULL
02 99,1 [E5D9E49B] [F6F1D85D] W/O NULL
03 64,0 [D20DE35F] [34E4B0A6] W/O NULL
04 79,0 [8D8034C6] [EF49D16E] W/O NULL
05 83,1 [74070BD0] [098FD68B] W/O NULL
06 79,2 [4E2FC285] [84D71F79] W/O NULL

Jacula - Discography [3 Studio Albums] (1969-2011)

Jacula - Pre Viam (2011)
EAC Rip | FLAC (tracks+.cue+log) - 374 MB | MP3 CBR 320 kbps (LAME 3.93) - 220 MB | Covers - 111 MB
Genre: Progressive Rock | RAR 3% Rec. | Label: Black Widow Records (BWRCD 135-2)

Tracklist:
01. Jacula Is Back
02. Pre Viam
03. Blacklady Kiss
04. Deviens Folle
05. In Rain
06. Godwitch
07. Possaction
+ Video "Veritates"

Total time: 51:50

Exact Audio Copy V1.0 beta 1 from 15. November 2010

EAC extraction logfile from 23. June 2011, 16:47

Jacula / Pre Viam

Used drive : _NEC DVD_RW ND-3540A Adapter: 3 ID: 1

Read mode : Secure
Utilize accurate stream : Yes
Defeat audio cache : Yes
Make use of C2 pointers : No

Read offset correction

: 48
Overread into Lead-In and Lead-Out : No
Fill up missing offset samples with silence : Yes
Delete leading and trailing silent blocks : No
Null samples used in CRC calculations : No
Used interface
: Native Win32 interface for Win NT & 2000
Gap handling
: Appended to previous track

Used output format : User Defined Encoder
Selected bitrate : 1024 kBit/s
Quality : High
Add ID3 tag : Yes
Command line compressor : C:\Program Files\FLAC\flac.exe
Additional command line options : -6 -V -T "ARTIST=%a" -T "TITLE=%t" -T "ALBUM=%g" -T "DATE=%y" -T "TRACKNUMBER=%n" -T "GENRE=%m" -T "COMMENT=%e" %s -o %d

TOC of the extracted CD Track | Start | Length | Start sector | End sector
1 | 0:00.00 | 7:07.35 | 0 | 32059 2 | 7:07.35 | 9:24.38 | 32060 | 74397 3 | 16:31.73 | 6:14.46 | 74398 | 102493 4 | 22:46.44 | 5:56.42 | 102494 | 129235 5 | 28:43.11 | 6:10.54 | 129236 | 157039 6 | 34:53.65 | 6:36.53 | 157040 | 186792 7 | 41:30.43 | 5:38.71 | 186793 | 212213 8 | 49:41.39 | 12:08.59 | 223614 | 278272

Track 1 Filename D:\Music\olaf_alien\Jacula - Pre Viam (2011, Black Widow)\01 - Jacula Is Back.wav Pre-gap length 0:00:02.00 Peak level 98.8 %
Extraction speed 4.6 X
Track quality 100.0 %
Test CRC 6881C3F2
Copy CRC 6881C3F2
Track not present in AccurateRip database
Copy OK

Track 2 Filename D:\Music\olaf_alien\Jacula - Pre Viam (2011, Black Widow)\02 - Pre Viam.wav Peak level 98.8 %
Extraction speed 5.4 X
Track quality 99.9 %
Test CRC 35F61016
Copy CRC 35F61016
Track not present in AccurateRip database
Copy OK

Track 3 Filename D:\Music\olaf_alien\Jacula - Pre Viam (2011, Black Widow)\03 - Blacklady Kiss.wav Peak level 98.8 %
Extraction speed 5.9 X
Track quality 100.0 %
Test CRC 908162C7
Copy CRC 908162C7
Track not present in AccurateRip database
Copy OK

Track 4 Filename D:\Music\olaf_alien\Jacula - Pre Viam (2011, Black Widow)\04 - Deviens Folle.wav Peak level 98.8 %
Extraction speed 6.5 X
Track quality 100.0 %
Test CRC C9B32ABF
Copy CRC C9B32ABF
Track not present in AccurateRip database
Copy OK

Track 5 Filename D:\Music\olaf_alien\Jacula - Pre Viam (2011, Black Widow)\05 - In Rain.wav Peak level 98.8 %
Extraction speed 7.4 X
Track quality 100.0 %
Test CRC E3F0AA90
Copy CRC E3F0AA90
Track not present in AccurateRip database
Copy OK

Track 6 Filename D:\Music\olaf_alien\Jacula - Pre Viam (2011, Black Widow)\06 - Godwitch.wav Peak level 98.8 %
Extraction speed 7.9 X
Track quality 100.0 %
Test CRC 227E73B5
Copy CRC 227E73B5
Track not present in AccurateRip database
Copy OK

Track 7 Filename D:\Music\olaf_alien\Jacula - Pre Viam (2011, Black Widow)\07 - Possaction.wav Peak level 98.8 %
Extraction speed 8.1 X
Track quality 100.0 %
Test CRC 75C11087
Copy CRC 75C11087
Track not present in AccurateRip database
Copy OK

None of the tracks are present in the AccurateRip database

No errors occurred

End of status report

[CUETools log; Date: 02.06.2015 17:31:28; Version: 2.1.4]
CD-Extra data track length 12:08:59.
[CTDB TOCID: YAPAzKXfy9JNvnvrSUPRwjRMBrM-] found.
Track | CTDB Status
1 | (1/1) Accurately ripped
2 | (1/1) Accurately ripped
3 | (1/1) Accurately ripped
4 | (1/1) Accurately ripped
5 | (1/1) Accurately ripped
6 | (1/1) Accurately ripped
7 | (1/1) Accurately ripped
[AccurateRip ID: 000ea726-0058cc36-7e0e7e08] found.
Track [ CRC | V2 ] Status
01 [899f47fe|2f8dbe05] (0+2/2) Accurately ripped
02 4d7485e|1361b434 (0+2/2) Accurately ripped
03 [2100073b|d55dbecf] (0+2/2) Accurately ripped
04 [47a805ec|97b9347e] (0+2/2) Accurately ripped
05 [836d7008|69d9745b] (0+2/2) Accurately ripped
06 [c07b6620|4fbeb1e2] (0+2/2) Accurately ripped
07 [6d1b82a3|94bcd079] (0+2/2) Accurately ripped

Track Peak [ CRC32 ] [W/O NULL] [ LOG ]
-- 98,8 [599F0406] [D7ED7758]
01 98,8 [A9461EFC] [6881C3F2] W/O NULL
02 98,8 [D0717E18] [35F61016] W/O NULL
03 98,8 [119C77F3] [908162C7] W/O NULL
04 98,8 [265AF6CE] [C9B32ABF] W/O NULL
05 98,8 [2D31F9C2] [E3F0AA90] W/O NULL
06 98,8 [2C8FECC1] [227E73B5] W/O NULL
07 98,8 [9B504CA1] [75C11087] W/O NULL

Thanks to olaf_alien
Download Links:
(Premium Recommended)


All above links are interchangable. No password

Direct Download

Tags: Jacula, Discography, Studio, Albums

Jacula - Discography [3 Studio Albums] (1969-2011) Download via Hotfile Rapidshare Fileserve Megaupload & FileSonic, Jacula - Discography [3 Studio Albums] (1969-2011) free torrent downloads included crack, serial, keygen.


Attention!Information

Members of Guest cannot leave comments.