Calexico - Edge of the Sun (2015) 2CD Limited Deluxe Edition

Download Now

Calexico - Edge of the Sun (2015) 2CD Limited Deluxe Edition

Calexico - Edge of the Sun (2015) 2CD Limited Deluxe Edition
EAC | FLAC | Tracks (Cue&Log) ~ 374 Mb (incl 5%) | Time: 00:55:09 | Scans ~ 314 Mb
Genre: Indie Rock, Indie Folk, Americana, Tex-Mex | Label: City Slang | # SLANG50072LTD

"Calexico s follow-up to 2012 s acclaimed Algiers, Edge of the Sun began with a songwriting retreat to the historic Mexico City borough of Coyoacán. Working for the first time with Mexican collaborators, Calexico expanded their horizons as the guest list grew to include musicians from a myriad of backgrounds, origins, and genres, including Sam Beam from Iron and Wine, Ben Bridwell from Band of Horses, Nick Urata from Devotchka, Carla Morrison, Gaby Moreno, Amparo Sanchez, multi-instrumentalists from the Greek band Takim, as well as Neko Case. Deluxe Edition Features a bonus 6-track EP."

"A vintage synth belches out an insistent theme to open the noisy "Cumbia de Donde", a standout on Calexico's new album. It's one of the most striking moments on Edge of the Sun, a rusty tangle of staccato notes and syncopation atop a sinewy percussion groove. Not only does it chafe against the band's default folk rock, but that central riff acts as a sort of code, as though the Tucson collective is offering coordinates for a northerly route connecting South and North, Sonora with San Francisco.

It's a song about origins ("¿De dónde eres?") and destinations ("¿Adónde vas?"), punctuated by the dots and dashes of a conspiratorial horn section. "I'm not from here, I'm not from there," Joey Burns sings, imbuing this itinerancy with power and possibility. Taking over vocals at the bridge, the Spanish vocalist Amparo Sánchez reveals the song's true destination. ¿Adónde vas? "A bailer cumbia." In this as in so many of Calexico's songs, the characters can go anywhere and do anything. Perhaps it's a quaint notion, but there is a certain freedom in rootlessness and restlessness.

This idea has been Calexico's guiding principle since Burns and drummer Jon Convertino split from Giant Sand in the early 1990s and lit out for parts unknown. They have never stood still for long, working as a backing band for Neko Case and Amos Lee while expanding their drums-and-guitar soundtrack rock into something larger, more song-driven, and more cinematic. If the band have skirted accusations of cultural appropriation, that's mainly due to the important fact that they do not deploy world music as a means to exoticize American folk rock. Rather, these various strains form the framework of their band's songs, all the way down to the lyrics themselves. It wasn't until 2012's Algiers that they began to sound creatively staid, as though they had reached the ends of their inspiration in Latin American music, but Edge of the Sun sounds newly invigorated and inspired as Calexico reconsider their own past and find new music to explore.

Burns and Convertino have always surrounded themselves with an eclectic set of collaborators, and Edge of the Sun is filled with cameos, most of them lending their songs a distinctive sound. Case sounds like a mirage on "Tapping on the Line", and Ben Bridwell, on loan from Band of Horses, adds some 2000s indie-rock drama to opener "Falling from the Sky", making that central question resonate powerfully throughout the rest of the album: "Where do you go when you have nowhere to go?" With Sam Beam singing and playing guitar, "Bullets & Rocks" inevitably recalls their joint EP from 2005, In the Reins, only bolder and more resourceful as they set a Tinariwen guitar lick rolling through the Mojave.

As usual, however, the most compelling contributions come from artists less familiar to American ears. For this reason, Calexico place them prominently in the music, often building whole songs around their voices or instruments. Sánchez is as much a presence on "Cumbia de Donde" as frontman Burns is, and members of the Greek band Tikam lend "World Undone" its suspense, creating the impression of an unraveling groove. Mexican singer Carla Morrison dominates the dark reggae bump of "Moon Never Rises", ghosting Burns' vocals before distorting her own delivery to make that central theme sound unsettling, uprooted, unplaceable. (Curious listeners should check out her excellent 2012 album, Déjenme Llorar.)

It's tempting to praise Calexico simply for its globetrotting spirit, but corralling so many styles and sounds onto one album should not be an end in itself. Fortunately, the album's musical diversity is a reflection of its lyrical themes. Named for a city that straddles Mexico and America, Calexico make music that is almost inevitably about borders both musical and national: finding them, crossing them, blurring them. Burns' songwriting keeps that idea anchored in very personal and specific perspectives, which lends human proportions to the ambitiously cinematic arrangements. His characters are transient by circumstance, always striving for something better: a sense of security, a feeling of freedom, a place to dance without danger, sometimes just a dip in the ocean.

That's the one wish of the main character in "Miles from the Sea", a landlocked laborer beaten down by "years of searing heat." He "dreams about swimming, miles away from the sea," Burns sings, his voice reaching deep to hit the low notes. The horns billow gently, the violin eddies wistfully, and Guatemalan singer Gaby Moreno draws those syllables out on the chorus to reinforce the sense of longing. The song fades in a roll of thunder, hinting that this dream of escape will go unrealized, but the music takes him and us right out among the waves.

Review by Stephen M. Deusner, Pitchfork.com
"




Tracklist:

CD1:

01. Falling From the Sky (03:23)
02. Bullets & Rocks (03:30)
03. When the Angels Played (02:25)
04. Tapping on the Line (03:28)
05. Cumbia de Donde (03:09)
06. Miles from the Sea (03:41)
08. Beneath the City of Dreams (02:35)
09. Woodshed Waltz (03:29)
10. Moon Never Rises (03:28)
11. World Undone (04:29)
12. Follow the River (03:56)

CD2:

01. Calavera (03:18)
02. Roll Tango (03:19)
03. Rosco y Pancetta (01:42)
04. Volviendo (02:36)
05. Esperanza (03:21)
06. Let It Slip Away (03:14)


Exact Audio Copy V1.0 beta 3 from 29. August 2011

EAC extraction logfile from 28. May 2015, 15:38

Calexico / Edge of the Sun

Used drive : PIONEER DVD-RW DVR-118L Adapter: 2 ID: 0

Read mode : Secure
Utilize accurate stream : Yes
Defeat audio cache : Yes
Make use of C2 pointers : No

Read offset correction

: 6
Overread into Lead-In and Lead-Out : No
Fill up missing offset samples with silence : Yes
Delete leading and trailing silent blocks : No
Null samples used in CRC calculations : Yes
Used interface
: Native Win32 interface for Win NT & 2000
Gap handling
: Appended to previous track

Used output format : User Defined Encoder
Selected bitrate : 1024 kBit/s
Quality : High
Add ID3 tag : No
Command line compressor : C:\Program Files (x86)\Exact Audio Copy\Flac\flac.exe
Additional command line options : -8 -V -T "ARTIST=%artist%" -T "TITLE=%title%" -T "ALBUM=%albumtitle%" -T "DATE=%year%" -T "TRACKNUMBER=%tracknr%" -T "GENRE=%genre%" -T "PERFORMER=%albuminterpret%" -T "COMPOSER=%composer%" %haslyrics%--tag-from-file=LYRICS="%lyricsfile%"%haslyrics% -T "ALBUMARTIST=%albumartist%" -T "DISCNUMBER=%cdnumber%" -T "TOTALDISCS=%totalcds%" -T "TOTALTRACKS=%numtracks%" -T "COMMENT=%comment%" %source% -o %dest%

TOC of the extracted CD Track | Start | Length | Start sector | End sector
1 | 0:00.00 | 3:22.73 | 0 | 15222 2 | 3:22.73 | 3:30.34 | 15223 | 31006 3 | 6:53.32 | 2:25.23 | 31007 | 41904 4 | 9:18.55 | 3:28.18 | 41905 | 57522 5 | 12:46.73 | 3:09.31 | 57523 | 71728 6 | 15:56.29 | 3:41.44 | 71729 | 88347 7 | 19:37.73 | 3:03.15 | 88348 | 102087 8 | 22:41.13 | 2:35.10 | 102088 | 113722 9 | 25:16.23 | 3:29.36 | 113723 | 129433
10 | 28:45.59 | 3:28.60 | 129434 | 145093
11 | 32:14.44 | 4:29.17 | 145094 | 165285
12 | 36:43.61 | 3:56.68 | 165286 | 183053

Track 1 Filename D:\CDRip\01 - Falling From the Sky.wav Pre-gap length 0:00:02.00 Peak level 95.8 %
Extraction speed 1.0 X
Track quality 100.0 %
Test CRC 19D58582
Copy CRC 19D58582
Track not present in AccurateRip database
Copy OK

Track 2 Filename D:\CDRip\02 - Bullets & Rocks.wav Peak level 95.9 %
Extraction speed 1.0 X
Track quality 99.9 %
Test CRC 100A8711
Copy CRC 100A8711
Track not present in AccurateRip database
Copy OK

Track 3 Filename D:\CDRip\03 - When the Angels Played.wav Peak level 95.8 %
Extraction speed 1.1 X
Track quality 100.0 %
Test CRC F2C4D7BA
Copy CRC F2C4D7BA
Track not present in AccurateRip database
Copy OK

Track 4 Filename D:\CDRip\04 - Tapping on the Line.wav Peak level 95.9 %
Extraction speed 1.3 X
Track quality 100.0 %
Test CRC D6B120D7
Copy CRC D6B120D7
Track not present in AccurateRip database
Copy OK

Track 5 Filename D:\CDRip\05 - Cumbia de Donde.wav Peak level 96.3 %
Extraction speed 1.3 X
Track quality 100.0 %
Test CRC CF0C62DC
Copy CRC CF0C62DC
Track not present in AccurateRip database
Copy OK

Track 6 Filename D:\CDRip\06 - Miles from the Sea.wav Peak level 96.4 %
Extraction speed 1.4 X
Track quality 100.0 %
Test CRC 417F8943
Copy CRC 417F8943
Track not present in AccurateRip database
Copy OK

Track 7 Filename D:\CDRip\07 - Coyoacán.wav Peak level 95.8 %
Extraction speed 1.5 X
Track quality 100.0 %
Test CRC 06CC3CE8
Copy CRC 06CC3CE8
Track not present in AccurateRip database
Copy OK

Track 8 Filename D:\CDRip\08 - Beneath the City of Dreams.wav Peak level 95.8 %
Extraction speed 1.5 X
Track quality 100.0 %
Test CRC 0DB75C7C
Copy CRC 0DB75C7C
Track not present in AccurateRip database
Copy OK

Track 9 Filename D:\CDRip\09 - Woodshed Waltz.wav Peak level 96.0 %
Extraction speed 1.4 X
Track quality 99.9 %
Test CRC 2D0720AD
Copy CRC 2D0720AD
Track not present in AccurateRip database
Copy OK

Track 10 Filename D:\CDRip\10 - Moon Never Rises.wav Peak level 96.2 %
Extraction speed 1.5 X
Track quality 99.9 %
Test CRC E199EB8C
Copy CRC E199EB8C
Track not present in AccurateRip database
Copy OK

Track 11 Filename D:\CDRip\11 - World Undone.wav Peak level 95.9 %
Extraction speed 1.6 X
Track quality 99.9 %
Test CRC E2C68E55
Copy CRC E2C68E55
Track not present in AccurateRip database
Copy OK

Track 12 Filename D:\CDRip\12 - Follow the River.wav Peak level 95.9 %
Extraction speed 1.9 X
Track quality 100.0 %
Test CRC 32A0811D
Copy CRC 32A0811D
Track not present in AccurateRip database
Copy OK

None of the tracks are present in the AccurateRip database

No errors occurred

End of status report

---- CUETools DB Plugin V2.1.3

[CTDB TOCID: 6QDn4Pk0Y5DkuGqALwVTxe5RU80-] found, Submit result: 6QDn4Pk0Y5DkuGqALwVTxe5RU80- has been confirmed
[e3f506fa] (64/66) Accurately ripped
[6d565dc1] (01/66) No match
[0a561946] (01/66) No match

==== Log checksum 5542DC51DC1480716C798512F0013E79C7FB8675E2EBB72FF7ECFD4D7DE06269 ====

foobar2000 1.3.8 / Dynamic Range Meter 1.1.1
log date: 2015-06-02 13:04:01

------
Analyzed: Calexico / Edge of the Sun
------

DR Peak RMS Duration Track
------
DR7 -0.36 dB -8.73 dB 3:23 01-Falling From the Sky
DR7 -0.36 dB -9.72 dB 3:30 02-Bullets & Rocks
DR7 -0.36 dB -8.74 dB 2:25 03-When the Angels Played
DR8 -0.36 dB -9.73 dB 3:28 04-Tapping on the Line
DR6 -0.32 dB -8.07 dB 3:09 05-Cumbia de Donde
DR7 -0.32 dB -10.37 dB 3:42 06-Miles from the Sea
DR8 -0.37 dB -9.12 dB 2:35 08-Beneath the City of Dreams
DR7 -0.35 dB -8.82 dB 3:29 09-Woodshed Waltz
DR8 -0.33 dB -10.35 dB 3:29 10-Moon Never Rises
DR8 -0.36 dB -12.07 dB 4:29 11-World Undone
DR7 -0.36 dB -10.06 dB 3:57 12-Follow the River
------

Number of tracks: 11
Official DR value: DR7

Samplerate: 44100 Hz
Channels: 2
Bits per sample: 16
Bitrate: 840 kbps
Codec: FLAC

Exact Audio Copy V1.0 beta 3 from 29. August 2011

EAC extraction logfile from 28. May 2015, 16:20

Calexico / Edge of the Sun

Used drive : PIONEER DVD-RW DVR-118L Adapter: 2 ID: 0

Read mode : Secure
Utilize accurate stream : Yes
Defeat audio cache : Yes
Make use of C2 pointers : No

Read offset correction

: 6
Overread into Lead-In and Lead-Out : No
Fill up missing offset samples with silence : Yes
Delete leading and trailing silent blocks : No
Null samples used in CRC calculations : Yes
Used interface
: Native Win32 interface for Win NT & 2000
Gap handling
: Appended to previous track

Used output format : User Defined Encoder
Selected bitrate : 1024 kBit/s
Quality : High
Add ID3 tag : No
Command line compressor : C:\Program Files (x86)\Exact Audio Copy\Flac\flac.exe
Additional command line options : -8 -V -T "ARTIST=%artist%" -T "TITLE=%title%" -T "ALBUM=%albumtitle%" -T "DATE=%year%" -T "TRACKNUMBER=%tracknr%" -T "GENRE=%genre%" -T "PERFORMER=%albuminterpret%" -T "COMPOSER=%composer%" %haslyrics%--tag-from-file=LYRICS="%lyricsfile%"%haslyrics% -T "ALBUMARTIST=%albumartist%" -T "DISCNUMBER=%cdnumber%" -T "TOTALDISCS=%totalcds%" -T "TOTALTRACKS=%numtracks%" -T "COMMENT=%comment%" %source% -o %dest%

TOC of the extracted CD Track | Start | Length | Start sector | End sector
1 | 0:00.00 | 3:17.72 | 0 | 14846 2 | 3:17.72 | 3:19.18 | 14847 | 29789 3 | 6:37.15 | 1:41.72 | 29790 | 37436 4 | 8:19.12 | 2:36.33 | 37437 | 49169 5 | 10:55.45 | 3:21.32 | 49170 | 64276 6 | 14:17.02 | 3:14.07 | 64277 | 78833

Track 1 Filename D:\CDRip\01 - Calavera.wav Pre-gap length 0:00:02.00 Peak level 97.2 %
Extraction speed 1.0 X
Track quality 100.0 %
Test CRC C1867693
Copy CRC C1867693
Track not present in AccurateRip database
Copy OK

Track 2 Filename D:\CDRip\02 - Roll Tango.wav Peak level 97.0 %
Extraction speed 1.1 X
Track quality 100.0 %
Test CRC 21005F95
Copy CRC 21005F95
Track not present in AccurateRip database
Copy OK

Track 3 Filename D:\CDRip\03 - Rosco y Pancetta.wav Peak level 98.8 %
Extraction speed 1.0 X
Track quality 100.0 %
Test CRC 115027D7
Copy CRC 115027D7
Track not present in AccurateRip database
Copy OK

Track 4 Filename D:\CDRip\04 - Volviendo.wav Peak level 97.1 %
Extraction speed 1.2 X
Track quality 100.0 %
Test CRC F33465F5
Copy CRC F33465F5
Track not present in AccurateRip database
Copy OK

Track 5 Filename D:\CDRip\05 - Esperanza.wav Peak level 96.7 %
Extraction speed 1.3 X
Track quality 100.0 %
Test CRC B091CCC4
Copy CRC B091CCC4
Track not present in AccurateRip database
Copy OK

Track 6 Filename D:\CDRip\06 - Let It Slip Away.wav Peak level 96.6 %
Extraction speed 1.4 X
Track quality 100.0 %
Test CRC 0119C098
Copy CRC 0119C098
Track not present in AccurateRip database
Copy OK

None of the tracks are present in the AccurateRip database

No errors occurred

End of status report

---- CUETools DB Plugin V2.1.3

[CTDB TOCID: 03SkgLhaT9.4Kw37r1tPAvpefJ8-] found, Submit result: 03SkgLhaT9.4Kw37r1tPAvpefJ8- has been confirmed
[2b228af6] (36/37) Accurately ripped
[0491df8b] (01/37) No match

==== Log checksum 115D2E50427E622F52D448E7EFD18BEA06A8ACF720F2048424A08E92046A21D2 ====

foobar2000 1.3.8 / Dynamic Range Meter 1.1.1
log date: 2015-06-02 13:04:14

------
Analyzed: Calexico / Edge of the Sun
------

DR Peak RMS Duration Track
------
DR7 -0.24 dB -8.77 dB 3:18 01-Calavera
DR7 -0.26 dB -9.30 dB 3:19 02-Roll Tango
DR7 -0.10 dB -8.22 dB 1:42 03-Rosco y Pancetta
DR9 -0.25 dB -11.61 dB 2:36 04-Volviendo
DR8 -0.28 dB -10.06 dB 3:21 05-Esperanza
DR10 -0.29 dB -11.70 dB 3:14 06-Let It Slip Away
------

Number of tracks: 6
Official DR value: DR8

Samplerate: 44100 Hz
Channels: 2
Bits per sample: 16
Bitrate: 791 kbps
Codec: FLAC

Calexico - Edge of the Sun (2015) 2CD Limited Deluxe Edition

Calexico - Edge of the Sun (2015) 2CD Limited Deluxe Edition

All thanks to original releaser - Знак Качества




Download Links:
(Premium Recommended)


All above links are interchangable. No password

Direct Download

Tags: Calexico, Limited, Deluxe

Calexico - Edge of the Sun (2015) 2CD Limited Deluxe Edition Download via Hotfile Rapidshare Fileserve Megaupload & FileSonic, Calexico - Edge of the Sun (2015) 2CD Limited Deluxe Edition free torrent downloads included crack, serial, keygen.


Attention!Information

Members of Guest cannot leave comments.