Guns N' Roses - Live: Era '87-'93 (1999)

Download Now

Guns N' Roses - Live: Era '87-'93 (1999)

Guns N' Roses - Live: Era '87-'93 (1999)
EAC | Flac(Image) + Cue + Log & MP3 CBR 320Kbps
Geffen, GEFD 90514 | ~ 948 or 313 Mb | Scans(450dpi, jpg) -> 106 Mb
Hard Rock / Glam

"The double-disc Live: Era '87-'93 was designed to do two things -- satiate die-hard fans longing for old-school GNR, while clearing decks for a new studio album. It sounds good in theory, yet it suffers in its execution, since it relies on tapes "recorded across the universe between 1987 and 1993..."


Tracklist CD1:

01. Nightrain 05:18
02. Mr. Brownstone 05:42
03. It's So Easy 03:29
04. Welcome To The Jungle 05:09
05. Dust N' Bones 05:05
06. My Michelle 03:53
07. You're Crazy 04:45
08. Used To Love Her 04:18
09. Patience 06:42
10. It's Alright 03:07
11. November Rain 12:30

Exact Audio Copy V1.0 beta 3 from 29. August 2011

EAC extraction logfile from 27. November 2013, 14:09

Guns N' Roses / Live Era '87-'93 - CD 1

Used drive : SAMSUNG DVD-ROM SD-616E Adapter: 3 ID: 0

Read mode : Secure
Utilize accurate stream : Yes
Defeat audio cache : Yes
Make use of C2 pointers : No

Read offset correction

: 12
Overread into Lead-In and Lead-Out : No
Fill up missing offset samples with silence : Yes
Delete leading and trailing silent blocks : No
Null samples used in CRC calculations : Yes
Used interface
: Native Win32 interface for Win NT & 2000

Used output format : User Defined Encoder
Selected bitrate : 768 kBit/s
Quality : High
Add ID3 tag : No
Command line compressor : C:\Program Files\Exact Audio Copy\FLAC\FLAC.EXE
Additional command line options : -6 -V -T "ARTIST=%artist%" -T "TITLE=%title%" -T "ALBUM=%albumtitle%" -T "DATE=%year%" -T "TRACKNUMBER=%tracknr%" -T "GENRE=%genre%" -T "COMMENT=%comment%" -T "BAND=%albuminterpret%" -T "ALBUMARTIST=%albuminterpret%" -T "COMPOSER=%composer%" %haslyrics%--tag-from-file=LYRICS="%lyricsfile%"%haslyrics% -T "DISCNUMBER=%cdnumber%" -T "TOTALDISCS=%totalcds%" -T "TOTALTRACKS=%numtracks%" %hascover%--picture="%coverfile%"%hascover% %source% -o %dest%

TOC of the extracted CD Track | Start | Length | Start sector | End sector
1 | 0:00.00 | 5:18.30 | 0 | 23879 2 | 5:18.30 | 5:42.17 | 23880 | 49546 3 | 11:00.47 | 3:28.38 | 49547 | 65184 4 | 14:29.10 | 5:08.50 | 65185 | 88334 5 | 19:37.60 | 5:05.15 | 88335 | 111224 6 | 24:43.00 | 3:53.15 | 111225 | 128714 7 | 28:36.15 | 4:45.00 | 128715 | 150089 8 | 33:21.15 | 4:17.55 | 150090 | 169419 9 | 37:38.70 | 6:42.27 | 169420 | 199596
10 | 44:21.22 | 3:07.25 | 199597 | 213646
11 | 47:28.47 | 12:29.58 | 213647 | 269879

Range status and errors

Selected range Filename C:\Documents and Settings\Borya\Desktop\rosgunliv\cd1\Guns N' Roses - Live Era '87-'93 - CD 1.wav Peak level 100.0 %
Extraction speed 3.1 X
Range quality 100.0 %
Test CRC 493DEC5C
Copy CRC 493DEC5C
Copy OK

No errors occurred


AccurateRip summary

Track 1 accurately ripped (confidence 5) E2708EC (AR v2)
Track 2 accurately ripped (confidence 5) [7B37C582] (AR v2)
Track 3 accurately ripped (confidence 5) [6DF60BAB] (AR v2)
Track 4 accurately ripped (confidence 5) [3638E760] (AR v2)
Track 5 accurately ripped (confidence 5) [2FA5982B] (AR v2)
Track 6 accurately ripped (confidence 5) [510E7FA1] (AR v2)
Track 7 accurately ripped (confidence 5) [7ECD0954] (AR v2)
Track 8 accurately ripped (confidence 5) [08648987] (AR v2)
Track 9 accurately ripped (confidence 5) [58872F7E] (AR v2)
Track 10 accurately ripped (confidence 5) [2E64C053] (AR v2)
Track 11 accurately ripped (confidence 5) [F92E5A00] (AR v2)

All tracks accurately ripped

End of status report

==== Log checksum 55A29A142EE6D595886F0B1E54A2AB5787F644ED82FC8C09B1CDFBAE67D7F328 ====

foobar2000 1.2.9 / Dynamic Range Meter 1.1.1
log date: 2015-06-04 16:10:33

------
Analyzed: Guns N' Roses / Live Era '87-'93 - CD 1
------

DR Peak RMS Duration Track
------
DR6 0.00 dB -7.40 dB 5:18 01-Nightrain
DR7 0.00 dB -9.23 dB 5:42 02-Mr. Brownstone
DR6 0.00 dB -7.23 dB 3:29 03-It's So Easy
DR7 0.00 dB -7.62 dB 5:09 04-Welcome To The Jungle
DR7 0.00 dB -7.66 dB 5:05 05-Dust N' Bones
DR7 0.00 dB -8.36 dB 3:53 06-My Michelle
DR6 0.00 dB -7.22 dB 4:45 07-You're Crazy
DR7 0.00 dB -8.95 dB 4:18 08-Used To Love Her
DR7 0.00 dB -9.17 dB 6:42 09-Patience
DR8 0.00 dB -10.54 dB 3:07 10-It's Alright
DR7 0.00 dB -9.50 dB 12:30 11-November Rain
------

Number of tracks: 11
Official DR value: DR7

Samplerate: 44100 Hz
Channels: 2
Bits per sample: 16
Bitrate: 967 kbps
Codec: FLAC

[CUETools log; Date: 04.06.2015 9:09:08; Version: 2.1.4]
[CTDB TOCID: tcFcwGE3vCiEiiaRfK0y12dAT8s-] found.
Track | CTDB Status
1 | (54/55) Accurately ripped
2 | (53/55) Accurately ripped
3 | (53/55) Accurately ripped
4 | (53/55) Accurately ripped
5 | (53/55) Accurately ripped
6 | (53/55) Accurately ripped
7 | (53/55) Accurately ripped
8 | (53/55) Accurately ripped
9 | (53/55) Accurately ripped
10 | (53/55) Accurately ripped
11 | (49/55) Accurately ripped
[AccurateRip ID: 00166c51-00c2f767-890e0e0b] found.
Track [ CRC | V2 ] Status
01 [06a1b302|be2708ec] (006+007/158) Accurately ripped
02 [3ea5ec49|7b37c582] (006+007/157) Accurately ripped
03 [72d32340|6df60bab] (006+007/157) Accurately ripped
04 [8634634d|3638e760] (006+007/158) Accurately ripped
05 [e1c84654|2fa5982b] (006+007/158) Accurately ripped
06 8bd60e8|510e7fa1 (006+007/158) Accurately ripped
07 [7b278d23|7ecd0954] (006+007/158) Accurately ripped
08 [cf133b2b|08648987] (006+007/158) Accurately ripped
09 [1796128b|58872f7e] (006+007/157) Accurately ripped
10 f1245d7|2e64c053 (006+007/158) Accurately ripped
11 [d57316b9|f92e5a00] (006+007/148) Accurately ripped
Offsetted by 93:
01 [1acc9681] (005/158) Accurately ripped
02 [9be23a9b] (005/157) Accurately ripped
03 [dba21554] (005/157) Accurately ripped
04 [8cd3599a] (005/158) Accurately ripped
05 [6c77a590] (005/158) Accurately ripped
06 [13177a60] (005/158) Accurately ripped
07 [17ece65b] (005/158) Accurately ripped
08 [3d5aa8ef] (005/158) Accurately ripped
09 [359e06a2] (005/157) Accurately ripped
10 [0af747c9] (005/158) Accurately ripped
11 [aeb40ff6] (005/148) Accurately ripped
Offsetted by 99:
01 [cd42e415] (004/158) Accurately ripped
02 [262d0741] (004/157) Accurately ripped
03 5873230 (004/157) Accurately ripped
04 [352af70d] (004/158) Accurately ripped
05 [97c09e16] (004/158) Accurately ripped
06 [33a7b590] (004/158) Accurately ripped
07 [a88c8d95] (004/158) Accurately ripped
08 [642bac0f] (004/158) Accurately ripped
09 [df58b2b3] (004/157) Accurately ripped
10 [471fe1bb] (004/158) Accurately ripped
11 [d18dcf02] (004/148) Accurately ripped
Offsetted by 661:
01 [c76a2cd1] (013/158) Accurately ripped
02 [3f0a4d3c] (013/157) Accurately ripped
03 [e35a1215] (013/157) Accurately ripped
04 [f38c85ce] (013/158) Accurately ripped
05 [321b0cc0] (013/158) Accurately ripped
06 [8afd0604] (013/158) Accurately ripped
07 e7290b6 (013/158) Accurately ripped
08 [10e2aac8] (013/158) Accurately ripped
09 [4ab876c7] (013/157) Accurately ripped
10 [19e7168c] (013/158) Accurately ripped
11 [5d38d4c4] (012/148) Accurately ripped
Offsetted by 667:
01 [531ba318] (046/158) Accurately ripped
02 [ebed09ac] (045/157) Accurately ripped
03 [916423e4] (044/157) Accurately ripped
04 [7a71ddfd] (045/158) Accurately ripped
05 [5e4e2dca] (045/158) Accurately ripped
06 4cb6b64 (045/158) Accurately ripped
07 [2cede736] (045/158) Accurately ripped
08 [59dd69a2] (045/158) Accurately ripped
09 [eca33737] (045/157) Accurately ripped
10 [5328043a] (045/158) Accurately ripped
11 [3fc0b955] (039/148) Accurately ripped
Offsetted by 757:
01 [20ce4ff1] (019/158) Accurately ripped
02 a2add0a (018/157) Accurately ripped
03 [e643ac09] (019/157) Accurately ripped
04 [cb25f444] (019/158) Accurately ripped
05 [1664fd38] (019/158) Accurately ripped
06 fe3b975 (019/158) Accurately ripped
07 [1349370d] (019/158) Accurately ripped
08 [36a190a5] (019/158) Accurately ripped
09 [0050ed1f] (019/157) Accurately ripped
10 [f73fd1f2] (019/158) Accurately ripped
11 [654cd58d] (019/148) Accurately ripped
Offsetted by 767:
01 [5ace39cb] (006/158) Accurately ripped
02 [5c0ca9ed] (006/157) Accurately ripped
03 [84c8854c] (006/157) Accurately ripped
04 [3c5c22bf] (006/158) Accurately ripped
05 [2a445242] (006/158) Accurately ripped
06 [5cc32d83] (006/158) Accurately ripped
07 [04d83c15] (006/158) Accurately ripped
08 [95f2d4df] (006/158) Accurately ripped
09 [1fbcc604] (006/157) Accurately ripped
10 [4c85d4fd] (006/158) Accurately ripped
11 [749052d0] (006/148) Accurately ripped
Offsetted by 81:
01 [ed447b9e] (000/158) No match (V2 was not tested)
02 [5f6a7f0c] (000/157) No match (V2 was not tested)
03 [e667b309] (000/157) No match (V2 was not tested)
04 [3fc9d0f4] (000/158) No match (V2 was not tested)
05 [8376b549] (000/158) No match (V2 was not tested)
06 [63346562] (000/158) No match (V2 was not tested)
07 [374e679e] (000/158) No match (V2 was not tested)
08 [ab3d8466] (000/158) No match (V2 was not tested)
09 [90a915a2] (000/157) No match (V2 was not tested)
10 [54e0c99a] (000/158) No match (V2 was not tested)
11 [6c17d863] (000/148) No match (V2 was not tested)

Track Peak [ CRC32 ] [W/O NULL] [ LOG ]
-- 99,9 [493DEC5C] [2CD32B26] CRC32
01 99,9 [AC7D4C89] [410528AF]
02 99,9 [699FEB85] [A8C5D35C]
03 99,9 [7379CBE7] [672397C5]
04 99,9 [20DE2D4F] [A995D3E2]
05 99,9 [580040A0] 7CE0A46
06 99,9 [679F960A] [A22FD08E]
07 99,9 [2FF73769] [A5FA05D1]
08 99,9 C57EC62 [69115B3C]
09 99,9 [8A03551E] [3CAC1DCD]
10 99,9 [F73F3B71] [4AE26813]
11 99,9 [D3DE6BDC] [90E07279]

Guns N' Roses - Live: Era '87-'93 (1999)

Tracklist CD2:

01. Out Ta Get Me 04:33
02. Pretty Tied Up 05:25
03. Yesterdays 03:52
04. Move To The City 08:00
05. You Could Be Mine 06:02
06. Rocket Queen 08:27
07. Sweet Child O' Mine 07:25
08. Knockin' On Heaven's Door 07:27
09. Don't Cry 04:45
10. Estranged 09:52
11. Paradise City 07:22

Exact Audio Copy V1.0 beta 3 from 29. August 2011

EAC extraction logfile from 29. November 2013, 2:12

Guns N' Roses / Live Era '87-'93 (CD 2)

Used drive : SAMSUNG DVD-ROM SD-616E Adapter: 3 ID: 0

Read mode : Secure
Utilize accurate stream : Yes
Defeat audio cache : Yes
Make use of C2 pointers : No

Read offset correction

: 12
Overread into Lead-In and Lead-Out : No
Fill up missing offset samples with silence : Yes
Delete leading and trailing silent blocks : No
Null samples used in CRC calculations : Yes
Used interface
: Native Win32 interface for Win NT & 2000

Used output format : User Defined Encoder
Selected bitrate : 768 kBit/s
Quality : High
Add ID3 tag : No
Command line compressor : C:\Program Files\Exact Audio Copy\FLAC\FLAC.EXE
Additional command line options : -6 -V -T "ARTIST=%artist%" -T "TITLE=%title%" -T "ALBUM=%albumtitle%" -T "DATE=%year%" -T "TRACKNUMBER=%tracknr%" -T "GENRE=%genre%" -T "COMMENT=%comment%" -T "BAND=%albuminterpret%" -T "ALBUMARTIST=%albuminterpret%" -T "COMPOSER=%composer%" %haslyrics%--tag-from-file=LYRICS="%lyricsfile%"%haslyrics% -T "DISCNUMBER=%cdnumber%" -T "TOTALDISCS=%totalcds%" -T "TOTALTRACKS=%numtracks%" %hascover%--picture="%coverfile%"%hascover% %source% -o %dest%

TOC of the extracted CD Track | Start | Length | Start sector | End sector
1 | 0:00.00 | 4:33.32 | 0 | 20506 2 | 4:33.32 | 5:25.13 | 20507 | 44894 3 | 9:58.45 | 3:52.55 | 44895 | 62349 4 | 13:51.25 | 8:00.15 | 62350 | 98364 5 | 21:51.40 | 6:02.20 | 98365 | 125534 6 | 27:53.60 | 8:27.25 | 125535 | 163584 7 | 36:21.10 | 7:25.12 | 163585 | 196971 8 | 43:46.22 | 7:27.25 | 196972 | 230521 9 | 51:13.47 | 4:44.60 | 230522 | 251881
10 | 55:58.32 | 9:52.00 | 251882 | 296281
11 | 65:50.32 | 7:21.55 | 296282 | 329411

Range status and errors

Selected range Filename C:\Documents and Settings\Borya\Desktop\rosgunliv\cd2\Guns N' Roses - Live Era '87-'93 (CD 2).wav Peak level 100.0 %
Extraction speed 3.7 X
Range quality 100.0 %
Test CRC BCF97543
Copy CRC BCF97543
Copy OK

No errors occurred


AccurateRip summary

Track 1 accurately ripped (confidence 5) [5291DF13] (AR v2)
Track 2 accurately ripped (confidence 5) [32724C06] (AR v2)
Track 3 accurately ripped (confidence 5) [517C9970] (AR v2)
Track 4 accurately ripped (confidence 5) [37597848] (AR v2)
Track 5 accurately ripped (confidence 5) [85A8F5E5] (AR v2)
Track 6 accurately ripped (confidence 5) [A95CDE68] (AR v2)
Track 7 accurately ripped (confidence 5) [C1BE12D2] (AR v2)
Track 8 accurately ripped (confidence 5) [5724FF11] (AR v2)
Track 9 accurately ripped (confidence 5) [F5AB2BE4] (AR v2)
Track 10 accurately ripped (confidence 5) [92592A23] (AR v2)
Track 11 accurately ripped (confidence 5) [3A9B4806] (AR v2)

All tracks accurately ripped

End of status report

==== Log checksum 8902214D4022C113B9C4BAC66E8ACE2CBEBE4A157D28401FBD068AAEA4AFE84D ====

foobar2000 1.2.9 / Dynamic Range Meter 1.1.1
log date: 2015-06-04 16:10:55

------
Analyzed: Guns N' Roses / Live Era '87-'93 (CD 2)
------

DR Peak RMS Duration Track
------
DR7 0.00 dB -7.91 dB 4:33 01-Out Ta Get Me
DR7 0.00 dB -7.98 dB 5:25 02-Pretty Tied Up
DR6 0.00 dB -8.23 dB 3:53 03-Yesterdays
DR7 0.00 dB -7.87 dB 8:00 04-Move To The City
DR6 0.00 dB -7.22 dB 6:02 05-You Could Be Mine
DR7 0.00 dB -8.54 dB 8:27 06-Rocket Queen
DR6 0.00 dB -7.25 dB 7:25 07-Sweet Child O' Mine
DR8 0.00 dB -9.52 dB 7:27 08-Knockin' On Heaven's Door
DR8 0.00 dB -9.69 dB 4:45 09-Don't Cry
DR7 0.00 dB -8.84 dB 9:52 10-Estranged
DR7 0.00 dB -8.65 dB 7:22 11-Paradise City
------

Number of tracks: 11
Official DR value: DR7

Samplerate: 44100 Hz
Channels: 2
Bits per sample: 16
Bitrate: 966 kbps
Codec: FLAC

[CUETools log; Date: 04.06.2015 9:11:55; Version: 2.1.4]
[CTDB TOCID: mJv4WBGqgWDpbWf.7XPL1Ja3FCQ-] found.
Track | CTDB Status
1 | (22/23) Accurately ripped
2 | (22/23) Accurately ripped
3 | (22/23) Accurately ripped
4 | (22/23) Accurately ripped
5 | (22/23) Accurately ripped
6 | (22/23) Accurately ripped
7 | (21/23) Accurately ripped
8 | (22/23) Accurately ripped
9 | (22/23) Accurately ripped
10 | (21/23) Accurately ripped
11 | (22/23) Accurately ripped
[AccurateRip ID: 001bc693-00f723da-8d11280b] found.
Track [ CRC | V2 ] Status
01 [641958db|5291df13] (06+08/72) Accurately ripped
02 [6ecf08ac|32724c06] (06+08/71) Accurately ripped
03 [2739767b|517c9970] (06+08/70) Accurately ripped
04 [3c9a6314|37597848] (06+08/71) Accurately ripped
05 0b8a177|85a8f5e5 (06+08/71) Accurately ripped
06 [77874f9b|a95cde68] (06+08/69) Accurately ripped
07 [c1d89e03|c1be12d2] (06+07/68) Accurately ripped
08 [e69e4dad|5724ff11] (06+08/68) Accurately ripped
09 [20c27e40|f5ab2be4] (06+08/69) Accurately ripped
10 [977da3d3|92592a23] (05+08/67) Accurately ripped
11 [52bd18b3|3a9b4806] (06+08/70) Accurately ripped
Offsetted by 667:
01 [7cfc569d] (33/72) Accurately ripped
02 [ab697f2c] (33/71) Accurately ripped
03 [19f48249] (32/70) Accurately ripped
04 [15ff2b16] (33/71) Accurately ripped
05 [a7fdf08a] (33/71) Accurately ripped
06 [35719059] (31/69) Accurately ripped
07 [04743d80] (31/68) Accurately ripped
08 [6504a224] (30/68) Accurately ripped
09 [6db86efd] (31/69) Accurately ripped
10 [0bf098ed] (30/67) Accurately ripped
11 [5d3526eb] (32/70) Accurately ripped
Offsetted by 757:
01 [d2f94c77] (04/72) Accurately ripped
02 [9f167ccc] (03/71) Accurately ripped
03 [49846a9e] (03/70) Accurately ripped
04 [7f57c80b] (03/71) Accurately ripped
05 [c6397533] (03/71) Accurately ripped
06 [3faa2360] (03/69) Accurately ripped
07 [af87f234] (03/68) Accurately ripped
08 [56349764] (03/68) Accurately ripped
09 56d2317 (03/69) Accurately ripped
10 [3150875d] (03/67) Accurately ripped
11 [ec629f35] (03/70) Accurately ripped
Offsetted by 767:
01 [69126027] (02/72) Accurately ripped
02 [4d423299] (02/71) Accurately ripped
03 [6d5cdfe5] (02/70) Accurately ripped
04 [9e78b0a3] (02/71) Accurately ripped
05 [e39849dd] (02/71) Accurately ripped
06 [23bf2080] (02/69) Accurately ripped
07 [e4656c49] (02/68) Accurately ripped
08 [c0f76910] (02/68) Accurately ripped
09 [3ae79cfb] (02/69) Accurately ripped
10 [d7d2cb35] (02/67) Accurately ripped
11 [987b0552] (02/70) Accurately ripped

Track Peak [ CRC32 ] [W/O NULL] [ LOG ]
-- 99,9 CF97543 [4590964F] CRC32
01 99,9 E0E1539 [A1AEFB8F]
02 99,9 [A8BD1026] [D8A1BB39]
03 99,9 [CA4F3D2E] [15F6E7BE]
04 99,9 [F39FD0B8] [7D933FE7]
05 99,9 [7B501F7E] [A5F440EA]
06 99,9 [2FF53856] [C3085CE0]
07 99,9 [C8CA5CAC] [C4F149EB]
08 99,9 [29A8A79C] [7E056581]
09 99,9 [40DB0B95] [36EA4C07]
10 99,9 [61AD1FBF] [52341ADD]
11 99,9 [D94489B9] [1FDB330F]

Guns N' Roses - Live: Era '87-'93 (1999)

DOWNLOAD:
Buy Premium From My Links To Get Resumable Support & Max Speed & To Support Me


Links are Interchangeable - No Password

Direct Download

Guns N' Roses - Live: Era '87-'93 (1999) Download via Hotfile Rapidshare Fileserve Megaupload & FileSonic, Guns N' Roses - Live: Era '87-'93 (1999) free torrent downloads included crack, serial, keygen.


Attention!Information

Members of Guest cannot leave comments.