In This Moment - Rise Of The Blood Legion: Greatest Hits (Chapter 1) (2015)

Download Now

In This Moment - Rise Of The Blood Legion: Greatest Hits (Chapter 1) (2015)

In This Moment - Rise Of The Blood Legion: Greatest Hits (Chapter 1) (2015)
EAC Rip | FLAC (Img) + Cue + Log ~ 499 Mb | MP3 CBR320 ~ 180 Mb
Covers Included (JPG, 300 dpi) | RAR 5% Recovery
Gothic/Alternative/Industrial/Nu Metal, Electronic Rock, Metalcore, Post-Hardcore | Century Media Records #9985442

"Rise of the Blood Legion - Greatest Hits (Chapter 1) is the first compilation album by the American metal band In This Moment. It was released by Century Media on May 4, 2015. The compilation comprises the band's four releases through Century Media. Material from their 2014 album, Black Widow, will not be included. The track listing was helmed by the band themselves. The title refers to the bands loyal fan base, which have been dubbed "The Blood Legion", also the title of a track off 2012's Blood."

Official Website | Wiki | Discogs | All Music
***************

In This Moment - Rise Of The Blood Legion: Greatest Hits (Chapter 1) (2015)

Track List:

01. Whispers Of October [01:07]
02. Beautiful Tragedy [04:02]
03. Prayers [03:47]
04. Daddy's Falling Angel [04:13]
05. The Rabbit Hole [01:06]
06. Forever [04:24]
07. Into The Light (Live Version) [05:43]
08. The Gun Show [04:49]
09. The Promise [04:30]
10. World In Flames [05:21]
11. Rise With Me [02:08]
12. Blood [03:28]
13. Scarlet [03:51]
14. Adrenalize [04:16]
15. It Is Written [00:31]
16. Burn [04:45]
17. Whore [04:06]
18. The Blood Legion [04:30]

Exact Audio Copy V1.0 beta 3 from 29. August 2011

EAC extraction logfile from 3. June 2015, 6:19

In This Moment / Rise Of The Blood Legion - Greatest Hits (Chapter 1)

Used drive : PLEXTOR DVDR PX-860A Adapter: 4 ID: 0

Read mode : Secure
Utilize accurate stream : Yes
Defeat audio cache : Yes
Make use of C2 pointers : No

Read offset correction

: 96
Overread into Lead-In and Lead-Out : No
Fill up missing offset samples with silence : Yes
Delete leading and trailing silent blocks : No
Null samples used in CRC calculations : Yes
Used interface
: Installed external ASPI interface

Used output format : User Defined Encoder
Selected bitrate : 128 kBit/s
Quality : High
Add ID3 tag : Yes
Command line compressor : G:\Program Files (x86)\Exact Audio Copy\Flac\flac.exe
Additional command line options : -V -8 -T "Date=%year%" -T "Genre=%genre%" %source%

TOC of the extracted CD Track | Start | Length | Start sector | End sector
1 | 0:00.00 | 1:06.06 | 0 | 4955 2 | 1:06.06 | 4:01.02 | 4956 | 23032 3 | 5:07.08 | 3:46.60 | 23033 | 40042 4 | 8:53.68 | 4:12.26 | 40043 | 58968 5 | 13:06.19 | 1:05.53 | 58969 | 63896 6 | 14:11.72 | 4:23.58 | 63897 | 83679 7 | 18:35.55 | 5:42.57 | 83680 | 109386 8 | 24:18.37 | 4:48.26 | 109387 | 131012 9 | 29:06.63 | 4:29.11 | 131013 | 151198
10 | 33:35.74 | 5:20.60 | 151199 | 175258
11 | 38:56.59 | 2:07.03 | 175259 | 184786
12 | 41:03.62 | 3:27.56 | 184787 | 200367
13 | 44:31.43 | 3:50.02 | 200368 | 217619
14 | 48:21.45 | 4:15.49 | 217620 | 236793
15 | 52:37.19 | 0:30.17 | 236794 | 239060
16 | 53:07.36 | 4:44.52 | 239061 | 260412
17 | 57:52.13 | 4:05.72 | 260413 | 278859
18 | 61:58.10 | 4:29.13 | 278860 | 299047

Range status and errors

Selected range Filename D:\MUSIC\In This Moment - Rise Of The Blood Legion - Greatest Hits (Chapter 1).wav Peak level 98.8 %
Extraction speed 8.0 X
Range quality 99.9 %
Test CRC 3B50E824
Copy CRC 3B50E824
Copy OK

No errors occurred


AccurateRip summary

Track 1 not present in database
Track 2 not present in database
Track 3 not present in database
Track 4 not present in database
Track 5 not present in database
Track 6 not present in database
Track 7 not present in database
Track 8 not present in database
Track 9 not present in database
Track 10 not present in database
Track 11 not present in database
Track 12 not present in database
Track 13 not present in database
Track 14 not present in database
Track 15 not present in database
Track 16 not present in database
Track 17 not present in database
Track 18 not present in database

None of the tracks are present in the AccurateRip database

End of status report

==== Log checksum 9EB37879A84BC4C089AD81DA3C8FA14192341BC18D7C5DF547C22BA3CC0E427C ====

foobar2000 1.2.6 / Dynamic Range Meter 1.1.1
log date: 2015-06-03 17:17:23

------
Analyzed: In This Moment / Rise Of The Blood Legion - Greatest Hits (Chapter 1)
------

DR Peak RMS Duration Track
------
DR15 -0.20 dB -21.98 dB 1:06 01-Whispers Of October
DR5 -0.10 dB -6.86 dB 4:01 02-Beautiful Tragedy
DR5 -0.10 dB -6.47 dB 3:47 03-Prayers
DR6 -0.10 dB -6.90 dB 4:12 04-Daddy's Falling Angel
DR7 -0.13 dB -11.37 dB 1:06 05-The Rabbit Hole
DR4 -0.10 dB -4.87 dB 4:24 06-Forever
DR7 -0.32 dB -10.68 dB 5:43 07-Into The Light (Live Version)
DR4 -0.10 dB -5.60 dB 4:48 08-The Gun Show
DR4 -0.10 dB -5.40 dB 4:29 09-The Promise
DR4 -0.10 dB -6.70 dB 5:21 10-World In Flames
DR6 -0.14 dB -10.81 dB 2:07 11-Rise With Me
DR4 -0.10 dB -5.46 dB 3:28 12-Blood
DR4 -0.10 dB -6.57 dB 3:50 13-Scarlet
DR5 -0.10 dB -6.36 dB 4:16 14-Adrenalize
DR10 -0.20 dB -15.02 dB 0:30 15-It Is Written
DR4 -0.10 dB -6.72 dB 4:45 16-Burn
DR5 -0.10 dB -6.57 dB 4:06 17-Whore
DR4 -0.10 dB -8.28 dB 4:29 18-The Blood Legion
------

Number of tracks: 18
Official DR value: DR6

Samplerate: 44100 Hz
Channels: 2
Bits per sample: 16
Bitrate: 957 kbps
Codec: FLAC

[CUETools log; Date: 03.06.2015 17:16:10; Version: 2.1.5]
[CTDB TOCID: W230As3YGIfigDgAPPK0J32wEgE-] found.
Track | CTDB Status
1 | (2/2) Accurately ripped
2 | (2/2) Accurately ripped
3 | (2/2) Accurately ripped
4 | (2/2) Accurately ripped
5 | (2/2) Accurately ripped
6 | (2/2) Accurately ripped
7 | (2/2) Accurately ripped
8 | (2/2) Accurately ripped
9 | (2/2) Accurately ripped
10 | (2/2) Accurately ripped
11 | (2/2) Accurately ripped
12 | (2/2) Accurately ripped
13 | (2/2) Accurately ripped
14 | (2/2) Accurately ripped
15 | (2/2) Accurately ripped
16 | (2/2) Accurately ripped
17 | (2/2) Accurately ripped
18 | (2/2) Accurately ripped
[AccurateRip ID: 002a16f3-023a3e26-0a0f9312] disk not present in database.

Track Peak [ CRC32 ] [W/O NULL] [ LOG ]
-- 98,8 [3B50E824] [F9BA1F16] CRC32
01 97,6 [29361349] [AF2C5B9F]
02 98,8 [A554A37E] [F449C017]
03 98,8 [03792AEB] [8A07DAD0]
04 98,8 [3AA2AC31] [C04F8F2C]
05 98,4 E577B6F [03704419]
06 98,8 [201996AB] [AAE2DC50]
07 96,3 [EFE6C174] [9E16A6D9]
08 98,8 [675E93CC] [AFF11CBD]
09 98,8 [175208E0] [C45491C7]
10 98,8 [FB203BC3] [E3D0B45B]
11 98,3 [41EA4FC5] [71D7745D]
12 98,8 [4573D07E] [03D7AD6C]
13 98,8 [1DFF26C8] [C0109C90]
14 98,8 [64052A0B] [C5CB1B80]
15 97,7 [62746D9B] [79D75743]
16 98,8 [68B6E4B6] [5AE96551]
17 98,8 [0D8DDD00] [F2EC07E2]
18 98,8 [CC0B239F] [0A54B52E]

In This Moment - Rise Of The Blood Legion: Greatest Hits (Chapter 1) (2015)


DOWNLOAD LINKS:
Buy Premium To Support Me & Get Resumable Support & Max Speed


Links are Interchangeable - No Password - Single Extraction

Direct Download

Tags: Moment, Legion, Greatest, Chapter

In This Moment - Rise Of The Blood Legion: Greatest Hits (Chapter 1) (2015) Download via Hotfile Rapidshare Fileserve Megaupload & FileSonic, In This Moment - Rise Of The Blood Legion: Greatest Hits (Chapter 1) (2015) free torrent downloads included crack, serial, keygen.


Attention!Information

Members of Guest cannot leave comments.