Gilda - Los Grandes Y Verdaderos Éxitos De Gilda (2000)

Download Now

Gilda - Los Grandes Y Verdaderos Éxitos De Gilda (2000)

Gilda - Los Grandes Y Verdaderos Éxitos De Gilda (2000)
EAC Rip | FLAC (Img) + Cue + Log ~ 386 Mb | MP3 CBR320 ~ 138 Mb
Scans Included (JPG, 600 dpi) | RAR 5% Recovery
Cumbia Tropical | Leader Music #LM 605457 5488 2 4

"Gilda (Miriam Alejandra Bianchi) was an Argentine singer and songwriter. She was the most successful tropical singer of the 90's in Argentina. Gilda started getting involved in music while organizing festivals at a Catholic school. After meeting musician Tito Giménez, the teacher became a backup singer, joining a band called la Barra and soon participating in a second project named Crema Americana. In 1993, Giménez convinced her to start a solo career, recording De Corazón A Corazón after signing up to local label Magenta. The following year, "La Única" featuring the hit "Corazón Herido" and "La Puerta" was released..."

Adorable Gilda | Wiki | Discogs | All Music
***************

Gilda - Los Grandes Y Verdaderos Éxitos De Gilda (2000)

Track List:

01. Fuiste [03:03]
02. Cumbia Bohemia [04:34]
03. No es mi Despedida [03:12]
04. Paisaje [04:24]
05. Te Necesito [03:01]
06. Amante Suavecito [03:32]
07. Se me Ha Perdido un Corazon [03:30]
08. Sigo el Ritmo [03:28]
09. Corazon Valiente [03:35]
10. Un Amor Verdadero [04:44]
11. Soy la Otra [04:12]
12. No Me Arrepiento de este Amor [04:41]
13. No te Quedes Afuera (Remix) [03:35]

Exact Audio Copy V1.0 beta 1 from 15. November 2010

EAC extraction logfile from 8. June 2012, 19:07

Gilda / Los Grandes y Verdaderos Éxitos de

Used drive : HL-DT-STDVDRAM GSA-H10N Adapter: 1 ID: 1

Read mode : Secure
Utilize accurate stream : Yes
Defeat audio cache : Yes
Make use of C2 pointers : No

Read offset correction

: 667
Overread into Lead-In and Lead-Out : No
Fill up missing offset samples with silence : Yes
Delete leading and trailing silent blocks : No
Null samples used in CRC calculations : Yes
Used interface
: Native Win32 interface for Win NT & 2000

Used output format : User Defined Encoder
Selected bitrate : 128 kBit/s
Quality : High
Add ID3 tag : No
Command line compressor : C:\Archivos de programa\Exact Audio Copy\Flac\flac.exe
Additional command line options : -8 -V %s

TOC of the extracted CD Track | Start | Length | Start sector | End sector
1 | 0:00.00 | 3:02.37 | 0 | 13686 2 | 3:02.37 | 4:33.73 | 13687 | 34234 3 | 7:36.35 | 3:11.44 | 34235 | 48603 4 | 10:48.04 | 4:23.66 | 48604 | 68394 5 | 15:11.70 | 3:00.49 | 68395 | 81943 6 | 18:12.44 | 3:31.09 | 81944 | 97777 7 | 21:43.53 | 3:29.61 | 97778 | 113513 8 | 25:13.39 | 3:27.06 | 113514 | 129044 9 | 28:40.45 | 3:34.53 | 129045 | 145147
10 | 32:15.23 | 4:43.70 | 145148 | 166442
11 | 36:59.18 | 4:11.53 | 166443 | 185320
12 | 41:10.71 | 4:40.33 | 185321 | 206353
13 | 45:51.29 | 3:34.64 | 206354 | 222467

Range status and errors

Selected range Filename C:\Documents and Settings\Sol\Escritorio\Gilda - Los Grandes y Verdaderos Éxitos de\Gilda - Los Grandes y Verdaderos Éxitos de.wav Peak level 100.0 %
Extraction speed 0.5 X
Range quality 100.0 %
Copy CRC 96EE6593
Copy OK

No errors occurred

End of status report

foobar2000 1.2.6 / Dynamic Range Meter 1.1.1
log date: 2015-06-05 17:06:16

------
Analyzed: Gilda / Los Grandes y Verdaderos Йxitos de
------

DR Peak RMS Duration Track
------
DR8 -0.05 dB -9.28 dB 3:02 01-Track01
DR8 -0.50 dB -9.67 dB 4:34 02-Track02
DR8 -0.55 dB -9.44 dB 3:12 03-Track03
DR9 -0.05 dB -10.01 dB 4:24 04-Track04
DR8 -0.05 dB -9.47 dB 3:01 05-Track05
DR7 -0.05 dB -8.28 dB 3:31 06-Track06
DR8 -0.55 dB -10.33 dB 3:30 07-Track07
DR8 -0.55 dB -9.28 dB 3:27 08-Track08
DR8 -0.05 dB -9.09 dB 3:35 09-Track09
DR8 -0.05 dB -9.34 dB 4:44 10-Track10
DR9 -0.01 dB -11.28 dB 4:12 11-Track11
DR11 0.00 dB -12.66 dB 4:40 12-Track12
DR10 -0.07 dB -10.76 dB 3:35 13-Track13
------

Number of tracks: 13
Official DR value: DR8

Samplerate: 44100 Hz
Channels: 2
Bits per sample: 16
Bitrate: 987 kbps
Codec: FLAC

[CUETools log; Date: 05.06.2015 17:57:18; Version: 2.1.5]
[CTDB TOCID: YfEJPuHIo9Aqs4j7tfNf9g.1DnE-] disk not present in database.
[AccurateRip ID: 001715e8-00e82b61-a20b960d] disk not present in database.

Track Peak [ CRC32 ] [W/O NULL] [ LOG ]
-- 100,0 [96EE6593] 308E0AB CRC32
01 99,4 [632F2F41] [89BCB6B9]
02 94,4 [D09C92FC] [3242D4C0]
03 93,8 [CED3C9EA] [297089F1]
04 99,4 [955F21FC] [54636F0A]
05 99,4 [D7847881] [16C682A4]
06 99,4 [370901F5] [9C10CC17]
07 93,8 [01169326] AA1129A
08 93,8 [04CCC564] [24FAE1C6]
09 99,4 [96393E87] [289D2D91]
10 99,4 [4881A211] [3F6EBCFD]
11 99,8 [80878375] [D0F04E65]
12 100,0 [AED099E1] [AAA1521D]
13 99,2 [C583A83C] [4E4CA166]

Gilda - Los Grandes Y Verdaderos Éxitos De Gilda (2000)


DOWNLOAD LINKS:
Buy Premium To Support Me & Get Resumable Support & Max Speed


Links are Interchangeable - No Password - Single Extraction

Direct Download

Tags: Grandes, Verdaderos

Gilda - Los Grandes Y Verdaderos Éxitos De Gilda (2000) Download via Hotfile Rapidshare Fileserve Megaupload & FileSonic, Gilda - Los Grandes Y Verdaderos Éxitos De Gilda (2000) free torrent downloads included crack, serial, keygen.


Attention!Information

Members of Guest cannot leave comments.