Steeleye Span - Gone To Australia: On Tour 1975-84 (2001)

Download Now

Steeleye Span - Gone To Australia: On Tour 1975-84 (2001)

Steeleye Span - Gone To Australia: On Tour 1975-84 (2001)
Folk Rock | 1cd | EAC Rip | Flac + Cue + Log | covers
Raven, RVCD-123 | rel: 2001 | 505Mb

Anglo-American ears might not credit it, but Steeleye Span was at least as popular in Australia as they were elsewhere around the world, and tours of that continent during the 1970s and 1980s always brought out some of their best ever live performances. Certainly, compared to the lackluster "official" live album that the band recorded in the U.K., the tapes culled for Gone to Australia: On Tour 1975-1984, largely drawn from FM radio broadcasts (but also absorbing the nine-track Australian On Tour live promo LP), recapture a power and effervescence that most people thought had been lost forever.
Even more surprisingly, the vast bulk of the album dates from the early '80s, by which time posterity insists Steeleye Span had shed much of the magic that was originally theirs to command. A magnificent 12-song set from Adelaide in 1982 and five tracks more from Perth in 1984 prove that posterity is an ass. Versions of "Alison Gross" ("about the Margaret Thatcher of the folk world," according to the introduction), "Cam Ye O'er Frae France," and "Thomas The Rhymer" are all the equals of their sainted studio counterparts, while "All Around My Hat," so long the ugly sister of Steeleye's dalliance with mainstream success, is almost unrecognizably stately. Indeed, by the time you reach the sole representative of the band's 1975 tour, the "Sum Waves"/"Devil's Dream" instrumental medley, what you thought would be the highlight is simply a coda. ~Allmusic

Track listing
01. Black Jack Davey (4:25)
02. Sails of Silver (3:54)
03. Let Her Go Down (4:05)
04. Alison Gross (6:30)
05. Barnet Fair (4:30)
06. Gone to America (4:56)
07. Longbone (5:10)
08. Back Goes to Limerick (2:47)
09. All Around My Hat (4:24)
10. Gaudete (2:35)
11. Sligo Maid (3:09)
12. Cam Ye O'er Frae France (4:30)
13. Bachelor's Hall (4:52)
14. Blackleg Miner (2:46)
15. Spotted Cow/Sailor's Bonnet (4:54)
16. Thomas the Rhymer (5:49)
17. The Mason's Apron (4:41)
18. Sum Waves/The Devil's Dream (4:18)
~ (78:17)

Exact Audio Copy V0.99 prebeta 5 from 4. May 2009

EAC extraction logfile from 22. July 2009, 11:47

Steeleye Span / Gone to Australia

Used drive : HL-DT-STDVDRAM GH20NS15 Adapter: 2 ID: 0

Read mode : Secure
Utilize accurate stream : Yes
Defeat audio cache : Yes
Make use of C2 pointers : No

Read offset correction

: 667
Overread into Lead-In and Lead-Out : No
Fill up missing offset samples with silence : Yes
Delete leading and trailing silent blocks : No
Null samples used in CRC calculations : Yes
Used interface
: Native Win32 interface for Win NT & 2000

Used output format : Internal WAV Routines
Sample format : 44.100 Hz; 16 Bit; Stereo

TOC of the extracted CD Track | Start | Length | Start sector | End sector
1 | 0:00.00 | 4:25.21 | 0 | 19895 2 | 4:25.21 | 3:54.08 | 19896 | 37453 3 | 8:19.29 | 4:04.47 | 37454 | 55800 4 | 12:24.01 | 6:30.19 | 55801 | 85069 5 | 18:54.20 | 4:29.65 | 85070 | 105309 6 | 23:24.10 | 4:56.36 | 105310 | 127545 7 | 28:20.46 | 5:09.43 | 127546 | 150763 8 | 33:30.14 | 2:47.34 | 150764 | 163322 9 | 36:17.48 | 4:24.33 | 163323 | 183155
10 | 40:42.06 | 2:34.63 | 183156 | 194768
11 | 43:16.69 | 3:09.15 | 194769 | 208958
12 | 46:26.09 | 4:29.61 | 208959 | 229194
13 | 50:55.70 | 4:51.47 | 229195 | 251066
14 | 55:47.42 | 2:46.36 | 251067 | 263552
15 | 58:34.03 | 4:54.28 | 263553 | 285630
16 | 63:28.31 | 5:48.49 | 285631 | 311779
17 | 69:17.05 | 4:41.23 | 311780 | 332877
18 | 73:58.28 | 4:18.26 | 332878 | 352253

Range status and errors

Selected range Filename C:\musjk\Steeleye Span - Gone to Australia.wav Peak level 100.0 %
Range quality 99.9 %
Test CRC C9F89C0E
Copy CRC C9F89C0E
Copy OK

No errors occurred


AccurateRip summary

Track 1 not present in database
Track 2 not present in database
Track 3 not present in database
Track 4 not present in database
Track 5 not present in database
Track 6 not present in database
Track 7 not present in database
Track 8 not present in database
Track 9 not present in database
Track 10 not present in database
Track 11 not present in database
Track 12 not present in database
Track 13 not present in database
Track 14 not present in database
Track 15 not present in database
Track 16 not present in database
Track 17 not present in database
Track 18 not present in database

None of the tracks are present in the AccurateRip database

End of status report

[CUETools log; Date: 2015.06.02. 16:07:11; Version: 2.1.5]
[CTDB TOCID: sNZRbwbHK5LCldSTr0qZz49E3bw-] found.
Track | CTDB Status
1 | (4/4) Accurately ripped
2 | (4/4) Accurately ripped
3 | (4/4) Accurately ripped
4 | (4/4) Accurately ripped
5 | (4/4) Accurately ripped
6 | (4/4) Accurately ripped
7 | (4/4) Accurately ripped
8 | (3/4) Accurately ripped, or (1/4) differs in 56 samples @00:10:59,00:11:00,00:11:17
9 | (4/4) Accurately ripped
10 | (4/4) Accurately ripped
11 | (4/4) Accurately ripped
12 | (4/4) Accurately ripped
13 | (4/4) Accurately ripped
14 | (4/4) Accurately ripped
15 | (4/4) Accurately ripped
16 | (4/4) Accurately ripped
17 | (4/4) Accurately ripped
18 | (4/4) Accurately ripped
[AccurateRip ID: 00333ec6-02a6cc3b-fb125812] found.
Track [ CRC | V2 ] Status
01 [82cde22f|41d64f41] (2+4/6) Accurately ripped
02 [407f6d92|51f5325d] (2+4/6) Accurately ripped
03 [1cb2ce73|4b076694] (2+4/6) Accurately ripped
04 [1b660316|b8df70d3] (2+4/6) Accurately ripped
05 [e433f775|1394178d] (2+4/6) Accurately ripped
06 [d6542891|58a81858] (2+4/6) Accurately ripped
07 [0c0b26f9|edd35811] (2+4/6) Accurately ripped
08 [361e0038|1adddab9] (2+4/6) Accurately ripped
09 [179c9b06|0f6471ee] (2+4/6) Accurately ripped
10 [029f2442|ab7f25a2] (2+4/6) Accurately ripped
11 [ad015824|8e4540d4] (2+4/6) Accurately ripped
12 [968f5a39|4979847b] (2+4/6) Accurately ripped
13 [669f9482|f0a156bf] (2+4/6) Accurately ripped
14 [acef78a6|003b2d98] (2+4/6) Accurately ripped
15 [2b41d770|7fe16184] (2+4/6) Accurately ripped
16 [6082df1d|b59e4de3] (2+4/6) Accurately ripped
17 [813b9fb0|35ca911b] (2+4/6) Accurately ripped
18 [1f1016f2|7fe28310] (2+4/6) Accurately ripped

Track Peak [ CRC32 ] [W/O NULL] [ LOG ]
-- 100,0 [C9F89C0E] [E387B26C] CRC32
01 100,0 [9C631EDC] [4BD22696]
02 100,0 [1C4C00A0] [CBE08D28]
03 100,0 [762B3B4F] 30944EF
04 100,0 [1A0FDE5F] [9E4EBBE3]
05 100,0 [025FD500] [655F4D69]
06 100,0 [4975DBF9] E6DEE6B
07 100,0 [35D213DC] [EB5E3AE9]
08 98,8 [5FD25BBC] E33EA25
09 100,0 [9BCF4D1B] [FF54BC21]
10 100,0 [F52E6023] [82CB8351]
11 100,0 [C906953A] [3DD3E1C6]
12 100,0 [D335EEF8] [D4B34E04]
13 97,4 [3052EB88] [D9A4CD83]
14 100,0 [8EDD4D40] [A1B5F08B]
15 100,0 [D066EEC0] [7E1DFD9A]
16 92,1 [001081C8] [9757F6DA]
17 100,0 [CA45891D] [A31708DC]
18 100,0 [8BB5ED94] [CCBE85AF]

original uploader unknown
Download Links:
(Premium Recommended)


All above links are interchangable. No password

Direct Download

Tags: Steeleye, Australia

Steeleye Span - Gone To Australia: On Tour 1975-84 (2001) Download via Hotfile Rapidshare Fileserve Megaupload & FileSonic, Steeleye Span - Gone To Australia: On Tour 1975-84 (2001) free torrent downloads included crack, serial, keygen.


Attention!Information

Members of Guest cannot leave comments.