Peter Tosh - Equal Rights (1977)

Download Now

Peter Tosh - Equal Rights (1977)

Peter Tosh - Equal Rights (1977)
Reggae | 1cd | EAC Rip | Flac + Cue + Log | covers
Columbia/Legacy 494499 2 | rem: 1999 | 330Mb

Equal Rights was to be the album that propelled Peter Tosh to the top of the reggae world -- the rival to onetime fellow Wailer Bob Marley. Time has shown that this lofty aspiration was not borne out, but Equal Rights remains among the handful of best, and most influential, reggae albums ever recorded. Tosh was always the most militant of the original Wailers and this album reflects that outlook. Whether it is preaching about the unity of the African diaspora ("African"), protesting conditions in South Africa ("Apartheid"), or giving a more general call to arms ("Get Up, Stand Up"), Equal Rights is a political album.
This is at times crippling, as some tracks are more effective as political statements than they are as songs. This, in fact, is a primary difference between Tosh and Marley -- Marley's political statements never overwhelmed his songs. Unfortunately, this is not always the case with Tosh. That being said, "Downpresser Man" (based on a folk standard), "Stepping Razor," and his definitive version of "Get Up, Stand Up" are as good a trio of songs as you will find on any album, reggae or not. Tosh's singing is angry and forceful and the music is intricate and distinctive. On these three tracks you can see why people thought that Tosh could become a transcendent international star. The rest of the album, however, shows why he never quite lived up to that potential. ~Allmusic

Track listing
01. Get Up,Stand Up (3:29)
02. Downpressor Man (6:25)
03. I Am That I Am (4:28)
04. Stepping Razor (5:48)
05. Equal Rights (5:58)
06. African (3:42)
07. Jah Guide (4:29)
08. Apartheid (5:31)
09. Pick Myself Up (Live) - Bonus'82 (7:12)
10. African (Live) - Bonus'82 (4:46)
~ (51:49)

Personnel
- Peter Tosh: vocals, guitar, keyboards
- Sly Dunbar: drums
- Earl Lindo: keyboards
- Bunny Wailer: background vocals
- Robbie Shakespeare: bass
- Al Anderson: guitar
- Harold Butler: clavinet
- Carlton Barrett: drums
- Abdul Wali: guitar
- Karl Pitterson: guitar
- Tyrone Downie: keyboards
- Skully: percussion
- "Dirty" Harry Hall: tenor saxophone
- Bobby Ellis: trumpet

Exact Audio Copy V1.0 beta 3 from 29. August 2011

Отчёт EAC об извлечении, выполненном 5. августа 2014, 7:13

Peter Tosh / Equal Rights

Дисковод: TSSTcorpCDDVDW SH-224DB Adapter: 1 ID: 0

Режим чтения : Достоверность
Использование точного потока : Да
Отключение кэша аудио : Да
Использование указателей C2 : Нет

Коррекция смещения при чтении : 6
Способность читать области Lead-in и Lead-out : Нет
Заполнение пропущенных сэмплов тишиной : Да
Удаление блоков с тишиной в начале и конце : Нет
При вычислениях CRC использовались нулевые сэмплы : Да
Интерфейс : Встроенный Win32-интерфейс для Win NT/2000

Выходной формат : Пользовательский кодировщик
Выбранный битрейт : 768 kBit/s
Качество : Высокий
Добавление ID3-тега : Нет
Утилита сжатия : C:\Program Files\Exact Audio Copy\Flac\flac.exe
Дополнительные параметры : -V -8 -T "Date=%year%" -T "Genre=%genre%" %source%

TOC извлечённого CD Трек | Старт | Длительность | Начальный сектор | Конечный сектор

1 | 0:00.00 | 3:29.20 | 0 | 15694
2 | 3:29.20 | 6:25.25 | 15695 | 44594
3 | 9:54.45 | 4:28.10 | 44595 | 64704
4 | 14:22.55 | 5:47.50 | 64705 | 90779
5 | 20:10.30 | 5:58.27 | 90780 | 117656
6 | 26:08.57 | 3:41.63 | 117657 | 134294
7 | 29:50.45 | 4:29.37 | 134295 | 154506
8 | 34:20.07 | 5:31.28 | 154507 | 179359
9 | 39:51.35 | 7:11.70 | 179360 | 211754
10 | 47:03.30 | 4:45.65 | 211755 | 233194

Характеристики диапазона извлечения и сообщения об ошибках

Выбранный диапазон Имя файла D:\lo$$le$$\P.Tosh'77\Peter Tosh - Equal Rights.wav Пиковый уровень 98.8 %
Скорость извлечения 2.9 X
Качество диапазона 100.0 %
CRC теста 535E20EB
CRC копии 535E20EB
Копирование... OK

Ошибок не произошло

Конец отчёта

==== Контрольная сумма отчёта F925C3A1B2BE5A6CE18E0A5A54FB4AA9F044EC7502B180BF352FE6EB1B3A4E80 ====

[CUETools log; Date: 2015.06.03. 8:59:36; Version: 2.1.5]
[CTDB TOCID: t8MKJgI5_vTinfk7tQmf6ErepWU-] found.
Track | CTDB Status
1 | (45/45) Accurately ripped
2 | (45/45) Accurately ripped
3 | (45/45) Accurately ripped
4 | (45/45) Accurately ripped
5 | (45/45) Accurately ripped
6 | (45/45) Accurately ripped
7 | (45/45) Accurately ripped
8 | (45/45) Accurately ripped
9 | (43/45) Accurately ripped
10 | (45/45) Accurately ripped
[AccurateRip ID: 00130550-009974be-7e0c250a] found.
Track [ CRC | V2 ] Status
01 [7c332528|426dee53] (19+13/78) Accurately ripped
02 1dc062f|0b3a0905 (19+13/79) Accurately ripped
03 [3faaa617|e62e2652] (19+13/78) Accurately ripped
04 [83e0e856|47a4e2b1] (19+13/79) Accurately ripped
05 [5a657879|6962d54b] (19+13/79) Accurately ripped
06 [5b882e58|99854430] (19+13/78) Accurately ripped
07 [28da1995|6cd240e0] (19+12/78) Accurately ripped
08 [4eb03b4c|c5a5292b] (19+13/77) Accurately ripped
09 [60246656|74f6af97] (19+13/80) Accurately ripped
10 [d6f3a84c|bf1a14d5] (18+13/77) Accurately ripped
Offsetted by 815:
01 [394da990] (05/78) Accurately ripped
02 [20ae95e4] (05/79) Accurately ripped
03 [123090a9] (05/78) Accurately ripped
04 [30941b54] (05/79) Accurately ripped
05 [f8fad2da] (05/79) Accurately ripped
06 [7187a3b0] (05/78) Accurately ripped
07 [51de867f] (05/78) Accurately ripped
08 [4e63b80f] (05/77) Accurately ripped
09 [24f2868e] (05/80) Accurately ripped
10 [6b1cdea5] (05/77) Accurately ripped
Offsetted by 817:
01 [150439c0] (04/78) Accurately ripped
02 [13727a9a] (04/79) Accurately ripped
03 [d06dd4c5] (04/78) Accurately ripped
04 [ef0a0618] (04/79) Accurately ripped
05 [665d81b8] (04/79) Accurately ripped
06 [531d7800] (04/78) Accurately ripped
07 [50b6a4eb] (04/78) Accurately ripped
08 [64b0cd69] (04/77) Accurately ripped
09 [e8a2d7c4] (04/80) Accurately ripped
10 [8a087ef1] (04/77) Accurately ripped
Offsetted by 820:
01 [5e961208] (08/78) Accurately ripped
02 [7f9851ab] (08/79) Accurately ripped
03 [edc9baef] (07/78) Accurately ripped
04 [8cbae63e] (08/79) Accurately ripped
05 [8a718805] (07/79) Accurately ripped
06 [a57e3678] (07/78) Accurately ripped
07 [4efad28d] (08/78) Accurately ripped
08 [06246d70] (07/77) Accurately ripped
09 [8d6b0ae5] (08/80) Accurately ripped
10 [460d8967] (07/77) Accurately ripped
Offsetted by -459:
01 [8408e220] (00/78) No match (V2 was not tested)
02 [0f3e7d06] (00/79) No match (V2 was not tested)
03 3be16fd (00/78) No match (V2 was not tested)
04 [452af1a0] (00/79) No match (V2 was not tested)
05 [ca6db474] (00/79) No match (V2 was not tested)
06 [1fb658a0] (00/78) No match (V2 was not tested)
07 [321ad3c3] (00/78) No match (V2 was not tested)
08 [d095971d] (00/77) No match (V2 was not tested)
09 [1183fae8] (00/80) No match (V2 was not tested)
10 [e1707035] (00/77) No match (V2 was not tested)
Offsetted by 1130:
01 [661f5f18] (00/78) No match (V2 was not tested)
02 [7c33cbdd] (02/79) Accurately ripped
03 [1ce1f7e3] (02/78) Accurately ripped
04 [de200aea] (02/79) Accurately ripped
05 [c531686f] (02/79) Accurately ripped
06 [3b35c2e8] (02/78) Accurately ripped
07 [9bd53df1] (02/78) Accurately ripped
08 [86d05aee] (02/77) Accurately ripped
09 [5df9277e] (02/80) Accurately ripped
10 [1d1487f0] (02/77) Accurately ripped

Track Peak [ CRC32 ] [W/O NULL] [ LOG ]
-- 98,8 [535E20EB] 9ECCAE7 CRC32
01 98,8 [F2BEB200] [0CE8B755]
02 98,8 [846E31A0] [3E49E57A]
03 98,8 [DD4D382A] [3722339A]
04 98,8 [AF8C9699] [4AD7E0D3]
05 98,8 [A52C1FAE] [21CE1B61]
06 98,8 [78397CD2] [60A80DF2]
07 98,8 [8C98D87A] [F275200D]
08 98,8 [A2BE7B99] [1E68FE9E]
09 98,8 [AA2FCD4A] [9B420CFF]
10 98,8 [D9EA7810] [2444DA85]

Thx to vicpalbk2006
DOWNLOAD
(Premium Recommended)


All above links are interchangable. No password

Direct Download

Tags: Rights

Peter Tosh - Equal Rights (1977) Download via Hotfile Rapidshare Fileserve Megaupload & FileSonic, Peter Tosh - Equal Rights (1977) free torrent downloads included crack, serial, keygen.


Attention!Information

Members of Guest cannot leave comments.