Dr. Feelgood - Stupidity (1976) [Reissue 1998] RE-UP

Download Now

Dr. Feelgood - Stupidity (1976) [Reissue 1998] RE-UP

Dr. Feelgood - Stupidity (1976) [Reissue 1998]
EAC | FLAC with CUE & LOG - 273 MB | Full Scans | MP3 CBR 320 Kbps - 108 MB
Pub Rock | TT - 47:02 minutes | Label: Grand Records | Catalogue # GRANDCD 21

Dr. Feelgood was the ultimate working band. From their formation in 1971 to lead vocalist Lee Brilleaux's untimely death in 1994, the band never left the road, playing hundreds of gigs every year. Throughout their entire career, Dr. Feelgood never left simple, hard-driving rock & roll behind, and their devotion to the blues and R&B earned them a devoted fan base. That following first emerged in the mid-'70s, when Dr. Feelgood became the leader of the second wave of pub rockers.
Tracklist:

01. Talking About You
02. 20 Yards Behind
03. Stupidity
04. All Through The City
05. I'm A Man
06. Walking The Dog
07. She Does I Right
08. Going Back Home
09. I Don't Mind
10. Back In The Night
11. I'm A Hog For You Baby
12. Checking Up On My Baby
13. Roxette
14. Riot In Cell Block No.9
15. Johnny B. Goode

Thanks to the Original ripper!

Exact Audio Copy V0.99 prebeta 4 from 23. January 2008

EAC extraction logfile from 3. June 2009, 21:09

Dr. Feelgood / Stupidity

Used drive : PIONEER DVD-RW DVR-216D Adapter: 4 ID: 0

Read mode : Secure
Utilize accurate stream : Yes
Defeat audio cache : Yes
Make use of C2 pointers : No

Read offset correction

: 96
Overread into Lead-In and Lead-Out : No
Fill up missing offset samples with silence : Yes
Delete leading and trailing silent blocks : No
Null samples used in CRC calculations : Yes
Used interface
: Native Win32 interface for Win NT & 2000
Gap handling
: Appended to previous track

Used output format : User Defined Encoder
Selected bitrate : 128 kBit/s
Quality : High
Add ID3 tag : No
Command line compressor : C:\Archivos de programa\Exact Audio Copy\Flac\flac.exe
Additional command line options : -8 -V -T "artist=%a" -T "title=%t" -T "album=%g" -T "date=%y" -T "tracknumber=%n" -T "genre=%m" %s

TOC of the extracted CD Track | Start | Length | Start sector | End sector
1 | 0:00.00 | 1:58.07 | 0 | 8856 2 | 1:58.07 | 2:01.48 | 8857 | 17979 3 | 3:59.55 | 2:25.25 | 17980 | 28879 4 | 6:25.05 | 2:54.17 | 28880 | 41946 5 | 9:19.22 | 5:10.50 | 41947 | 65246 6 | 14:29.72 | 2:58.23 | 65247 | 78619 7 | 17:28.20 | 3:05.57 | 78620 | 92551 8 | 20:34.02 | 3:43.55 | 92552 | 109331 9 | 24:17.57 | 2:17.45 | 109332 | 119651
10 | 26:35.27 | 3:09.65 | 119652 | 133891
11 | 29:45.17 | 3:16.38 | 133892 | 148629
12 | 33:01.55 | 3:17.60 | 148630 | 163464
13 | 36:19.40 | 2:54.52 | 163465 | 176566
14 | 39:14.17 | 3:47.50 | 176567 | 193641
15 | 43:01.67 | 3:59.60 | 193642 | 211626

Track 1 Filename E:\EAC_RIP_FLAC\01 - Talking About You.wav Pre-gap length 0:00:02.00 Peak level 77.7 %
Track quality 100.0 %
Test CRC 3F5CF585
Copy CRC 3F5CF585
Cannot be verified as accurate (confidence 4) [D2AB23A0], AccurateRip returned [A2C1B84C]
Copy OK

Track 2 Filename E:\EAC_RIP_FLAC\02 - 20 Yards Behind.wav Peak level 81.1 %
Track quality 100.0 %
Test CRC 1C5C6AD3
Copy CRC 1C5C6AD3
Cannot be verified as accurate (confidence 4) [107A3297], AccurateRip returned [AA952777]
Copy OK

Track 3 Filename E:\EAC_RIP_FLAC\03 - Stupidity.wav Peak level 88.6 %
Track quality 100.0 %
Test CRC 45C1F80C
Copy CRC 45C1F80C
Cannot be verified as accurate (confidence 4) [818E876E], AccurateRip returned [C75BFEC5]
Copy OK

Track 4 Filename E:\EAC_RIP_FLAC\04 - All Through The City.wav Peak level 83.3 %
Track quality 100.0 %
Test CRC F07F1925
Copy CRC F07F1925
Cannot be verified as accurate (confidence 4) [171777ED], AccurateRip returned [214D79B4]
Copy OK

Track 5 Filename E:\EAC_RIP_FLAC\05 - I'm A Man.wav Peak level 72.8 %
Track quality 100.0 %
Test CRC 2780B2F9
Copy CRC 2780B2F9
Cannot be verified as accurate (confidence 3) [C6F94193], AccurateRip returned [A47FD292]
Copy OK

Track 6 Filename E:\EAC_RIP_FLAC\06 - Walking The Dog.wav Peak level 81.7 %
Track quality 99.9 %
Test CRC 42B578FF
Copy CRC 42B578FF
Cannot be verified as accurate (confidence 3) [21E78791], AccurateRip returned [C9339B4C]
Copy OK

Track 7 Filename E:\EAC_RIP_FLAC\07 - She Does I Right.wav Peak level 90.8 %
Track quality 100.0 %
Test CRC 4FA0A7D1
Copy CRC 4FA0A7D1
Cannot be verified as accurate (confidence 4) [D0220A1B], AccurateRip returned [6F2C067B]
Copy OK

Track 8 Filename E:\EAC_RIP_FLAC\08 - Going Back Home.wav Peak level 99.6 %
Track quality 100.0 %
Test CRC BAEBF912
Copy CRC BAEBF912
Cannot be verified as accurate (confidence 3) [85713786], AccurateRip returned [0611AB56]
Copy OK

Track 9 Filename E:\EAC_RIP_FLAC\09 - I Don't Mind.wav Peak level 79.1 %
Track quality 100.0 %
Test CRC AC1C6223
Copy CRC AC1C6223
Cannot be verified as accurate (confidence 5) [74986E72], AccurateRip returned [72ACB750]
Copy OK

Track 10 Filename E:\EAC_RIP_FLAC\10 - Back In The Night.wav Peak level 84.3 %
Track quality 100.0 %
Test CRC 8E9D76C8
Copy CRC 8E9D76C8
Cannot be verified as accurate (confidence 4) [3CBA16EB], AccurateRip returned [8A76D4A3]
Copy OK

Track 11 Filename E:\EAC_RIP_FLAC\11 - I'm A Hog For You Baby.wav Peak level 94.6 %
Track quality 100.0 %
Test CRC D0B17B79
Copy CRC D0B17B79
Cannot be verified as accurate (confidence 5) [A3AE9DAB], AccurateRip returned [F5C266CA]
Copy OK

Track 12 Filename E:\EAC_RIP_FLAC\12 - Checking Up On My Baby.wav Peak level 80.3 %
Track quality 100.0 %
Test CRC 56090854
Copy CRC 56090854
Cannot be verified as accurate (confidence 4) [2F4E638A], AccurateRip returned [DEF365D7]
Copy OK

Track 13 Filename E:\EAC_RIP_FLAC\13 - Roxette.wav Peak level 83.5 %
Track quality 99.9 %
Test CRC 978F3D70
Copy CRC 978F3D70
Cannot be verified as accurate (confidence 5) [029C01BB], AccurateRip returned [70911E34]
Copy OK

Track 14 Filename E:\EAC_RIP_FLAC\14 - Riot In Cell Block No.9.wav Peak level 94.2 %
Track quality 100.0 %
Test CRC 238043DE
Copy CRC 238043DE
Cannot be verified as accurate (confidence 4) [4A11D0A4], AccurateRip returned [93794338]
Copy OK

Track 15 Filename E:\EAC_RIP_FLAC\15 - Johnny B. Goode.wav Peak level 98.8 %
Track quality 100.0 %
Test CRC 598A1A24
Copy CRC 598A1A24
Cannot be verified as accurate (confidence 4) [D5A66BBC], AccurateRip returned [2EFC696F]
Copy OK

No tracks could be verified as accurate
You may have a different pressing from the one(s) in the database

No errors occurred

End of status report

--

CUETools log; Date: 24.11.2012 14:09:29; Version: 2.1.4]
[AccurateRip ID: 0018466a-0118d159-cf0b050f] found.
Track [ CRC | V2 ] Status
01 [d2ab23a0|a9ce32a0] (02+00/11) Accurately ripped
02 [107a3297|c487a75a] (02+00/11) Accurately ripped
03 [818e876e|a4904937] (02+00/11) Accurately ripped
04 [171777ed|14d6842d] (02+00/11) Accurately ripped
05 [c6f94193|678a8ccc] (02+00/11) Accurately ripped
06 [21e78791|d48403da] (02+00/11) Accurately ripped
07 [d0220a1b|d7c07de0] (02+00/11) Accurately ripped
08 [85713786|480f3a9e] (02+00/11) Accurately ripped
09 [74986e72|01d888af] (02+00/12) Accurately ripped
10 [3cba16eb|e4bbd32e] (02+00/12) Accurately ripped
11 [a3ae9dab|e4ffd6f4] (02+00/12) Accurately ripped
12 [2f4e638a|75058427] (02+00/12) Accurately ripped
13 [029c01bb|c0cc2cc2] (02+00/12) Accurately ripped
14 [4a11d0a4|e5fdb020] (02+00/12) Accurately ripped
15 [d5a66bbc|960159f5] (02+00/12) Accurately ripped
Offsetted by 30:
01 [a2c1b84c] (07/11) Accurately ripped
02 [aa952777] (07/11) Accurately ripped
03 [c75bfec5] (07/11) Accurately ripped
04 [214d79b4] (07/11) Accurately ripped
05 [a47fd292] (07/11) Accurately ripped
06 [c9339b4c] (07/11) Accurately ripped
07 [6f2c067b] (07/11) Accurately ripped
08 [0611ab56] (07/11) Accurately ripped
09 [72acb750] (08/12) Accurately ripped
10 [8a76d4a3] (08/12) Accurately ripped
11 [f5c266ca] (08/12) Accurately ripped
12 [def365d7] (08/12) Accurately ripped
13 [70911e34] (08/12) Accurately ripped
14 [93794338] (08/12) Accurately ripped
15 [2efc696f] (08/12) Accurately ripped
Offsetted by -1310:
01 [f0a42bdd] (00/11) No match (V2 was not tested)
02 [12eac935] (00/11) No match (V2 was not tested)
03 [c98748cc] (00/11) No match (V2 was not tested)
04 [e62331d0] (00/11) No match (V2 was not tested)
05 [7e98bd13] (00/11) No match (V2 was not tested)
06 [4837084e] (00/11) No match (V2 was not tested)
07 [59186622] (00/11) No match (V2 was not tested)
08 [15de0297] (00/11) No match (V2 was not tested)
09 [4d2ff604] (00/12) No match (V2 was not tested)
10 [3ad98209] (00/12) No match (V2 was not tested)
11 [a2979bd8] (00/12) No match (V2 was not tested)
12 [16e80ce3] (00/12) No match (V2 was not tested)
13 [c95245cf] (00/12) No match (V2 was not tested)
14 db849cc (00/12) No match (V2 was not tested)
15 [8cc3c877] (00/12) No match (V2 was not tested)

Track Peak [ CRC32 ] [W/O NULL] [ LOG ]
-- 99,6 [A6702C99] [832855FF]
01 77,7 [3F5CF585] [33705F31] CRC32
02 81,1 [1C5C6AD3] [EE193F35] CRC32
03 88,6 [45C1F80C] [24FEAC61] CRC32
04 83,3 [F07F1925] [E402FC73] CRC32
05 72,8 [2780B2F9] [7D5360FE] CRC32
06 81,7 [42B578FF] [76A2AF7B] CRC32
07 90,8 [4FA0A7D1] [AD334C4F] CRC32
08 99,6 AEBF912 [A1407795] CRC32
09 79,1 [AC1C6223] [C6DC2253] CRC32
10 84,3 [8E9D76C8] [A2364AEE] CRC32
11 94,6 [D0B17B79] [98B69D20] CRC32
12 80,3 [56090854] [47CDBEB5] CRC32
13 83,5 [978F3D70] [560ED821] CRC32
14 94,2 [238043DE] [0BCE5B6A] CRC32
15 98,8 [598A1A24] [67829CF2] CRC32
DOWNLOAD LINKS:
Buy Premium To Support Me & Get Resumable Support & Max Speed


Links are Interchangeable - No Password - Single Extraction

Direct Download

Tags: Feelgood, Stupidity, Reissue

Dr. Feelgood - Stupidity (1976) [Reissue 1998] RE-UP Download via Hotfile Rapidshare Fileserve Megaupload & FileSonic, Dr. Feelgood - Stupidity (1976) [Reissue 1998] RE-UP free torrent downloads included crack, serial, keygen.


Attention!Information

Members of Guest cannot leave comments.