Chris Rainbow ‎- The Chris Rainbow Anthology 1974-1981 (2001) 2CD

Download Now

Chris Rainbow ‎- The Chris Rainbow Anthology 1974-1981 (2001) 2CD

Chris Rainbow ‎- The Chris Rainbow Anthology 1974-1981 (2001) 2CD
EAC Rip | WavPack (images & cue & log) | 1,19 GB | MP3 CBR 320 kbps | 590 MB | Scans | 2:19:18
Genre: Rock / Pop Rock / Art-Rock | Country: UK | Label: Vital Spark Records | VITALCD05

"This album was released in 2001, and includes rare tracks and demo versions. Chris Rainbow , also known as Christopher Rainbow, was a Scottish rock singer and musician who had two hit songs, "Give Me What I Cry For" and "Solid State Brain" in the 1970s."



Tracklist:

CD1
1 Love You Eternally
2 Be Like A Woman
3 Ring Ring
4 In And Out And Roundabout
5 Dear Brian
6 You and I
7 Don't Take the Night Away
8 Allnight
9 Gimme Just A Beat
10 Body Music
11 Girl In Collision
12 Kenny Everett Ad
13 Solid State Brain
14 Give Me What I Cry For
15 In Love With Love
16 Song of the Earth
17 Glasgow Boy

CD 2
1 On My Way
2 Tarzana Reseda
3 Show Us The Sun
4 Summer!
5 Looking at You
6 Dansette
7 Mr. Man
8 Run Away
9 Gimme Just A Beat
10 Looking In Your Window
11 Giving It Up
12 Fly Away
13 Radio Jingles Medley
14 Kenny Everett Ad
15 Living In the World Today
16 Looking Over My Shoulder
17 Compulsory Dancing
18 Electra City
19 Turning The World Around
20 Bluebird
21 Kaleidoscope

Exact Audio Copy V0.99 prebeta 5 from 4. May 2009

EAC extraction logfile from 16. September 2010, 15:04

Chris Rainbow / The Chris Rainbow Anthology

Used drive : Optiarc DVD RW AD-7200A Adapter: 0 ID: 0

Read mode : Secure
Utilize accurate stream : Yes
Defeat audio cache : Yes
Make use of C2 pointers : No

Read offset correction

: 48
Overread into Lead-In and Lead-Out : No
Fill up missing offset samples with silence : Yes
Delete leading and trailing silent blocks : No
Null samples used in CRC calculations : Yes
Used interface
: Installed external ASPI interface

Used output format : Internal WAV Routines
Sample format : 44.100 Hz; 16 Bit; Stereo

TOC of the extracted CD Track | Start | Length | Start sector | End sector
1 | 0:00.00 | 3:29.35 | 0 | 157092 | 3:29.35 | 4:00.58 | 15710 | 337673 | 7:30.18 | 2:54.41 | 33768 | 468584 | 10:24.59 | 4:44.67 | 46859 | 682255 | 15:09.51 | 6:03.54 | 68226 | 955046 | 21:13.30 | 4:13.57 | 95505 | 1145367 | 25:27.12 | 4:09.74 | 114537 | 1332858 | 29:37.11 | 3:05.10 | 133286 | 1471709 | 32:42.21 | 3:34.13 | 147171 | 163233
10 | 36:16.34 | 6:10.55 | 163234 | 191038
11 | 42:27.14 | 4:44.27 | 191039 | 212365
12 | 47:11.41 | 0:36.28 | 212366 | 215093
13 | 47:47.69 | 2:39.19 | 215094 | 227037
14 | 50:27.13 | 3:27.10 | 227038 | 242572
15 | 53:54.23 | 5:31.46 | 242573 | 267443
16 | 59:25.69 | 3:30.67 | 267444 | 283260
17 | 62:56.61 | 6:05.65 | 283261 | 310700

Range status and errors

Selected range Filename C:\The Chris Rainbow Anthology 1974-1981\Part 1\Chris Rainbow - The Chris Rainbow Anthology.wav Peak level 100.0 %
Range quality 100.0 %
Copy CRC 9CCBDC88
Copy OK

No errors occurred

End of status report

Exact Audio Copy V0.99 prebeta 5 from 4. May 2009

EAC extraction logfile from 16. September 2010, 15:35

Chris Rainbow / The Chris Rainbow Anthology

Used drive : Optiarc DVD RW AD-7200A Adapter: 0 ID: 0

Read mode : Secure
Utilize accurate stream : Yes
Defeat audio cache : Yes
Make use of C2 pointers : No

Read offset correction

: 48
Overread into Lead-In and Lead-Out : No
Fill up missing offset samples with silence : Yes
Delete leading and trailing silent blocks : No
Null samples used in CRC calculations : Yes
Used interface
: Installed external ASPI interface

Used output format : Internal WAV Routines
Sample format : 44.100 Hz; 16 Bit; Stereo

TOC of the extracted CD Track | Start | Length | Start sector | End sector
1 | 0:00.00 | 4:10.09 | 0 | 187582 | 4:10.09 | 3:03.44 | 18759 | 325273 | 7:13.53 | 3:04.20 | 32528 | 463474 | 10:17.73 | 3:38.66 | 46348 | 627635 | 13:56.64 | 3:38.69 | 62764 | 791826 | 17:35.58 | 2:15.51 | 79183 | 893587 | 19:51.34 | 3:11.50 | 89359 | 1037338 | 23:03.09 | 4:22.73 | 103734 | 1234569 | 27:26.07 | 4:42.71 | 123457 | 144677
10 | 32:09.03 | 3:17.61 | 144678 | 159513
11 | 35:26.64 | 4:35.71 | 159514 | 180209
12 | 40:02.60 | 3:07.57 | 180210 | 194291
13 | 43:10.42 | 2:39.41 | 194292 | 206257
14 | 45:50.08 | 0:33.08 | 206258 | 208740
15 | 46:23.16 | 3:01.37 | 208741 | 222352
16 | 49:24.53 | 4:06.67 | 222353 | 240869
17 | 53:31.45 | 3:25.09 | 240870 | 256253
18 | 56:56.54 | 2:37.45 | 256254 | 268073
19 | 59:34.24 | 4:44.27 | 268074 | 289400
20 | 64:18.51 | 4:21.32 | 289401 | 309007
21 | 68:40.08 | 1:34.61 | 309008 | 316118

Range status and errors

Selected range Filename C:\The Chris Rainbow Anthology 1974-1981\Part 2\Chris Rainbow - The Chris Rainbow Anthology.wav Peak level 100.0 %
Range quality 100.0 %
Copy CRC 3E2D1F86
Copy OK

No errors occurred

End of status report

Personnel

Chris And George Serghe,Domino Duo With Shirley Lewis,Julia Tillman,Maxine Willard,Oren Waters - Backing Vocals
Clive Chaman,Dave Markee,Dave Wintour,Dave Wintour,Mo Foster,Reggie McBride - Bass
Andrew Steele,Chris Karan,Henry Spinetti,Ian Cochrane,John Halsey,Ollie Brown - Drums
Pete Zorn - Flute
Ian Bairnson,Mart Jenner,Robert 'Crackle' Ahwai,Seymour Duncan,Shug Barr - Guitar
Chris Rainbow,Dave Lawson,Don Grusin,Max Middleton - Keyboards
Robert 'Crackle' Ahwai - Lead Guitar
John Hamilton - Moog Synth
Chris Rainbow - Piano,Rhythm Guitar
Mel Collins,Pete Zorn - Saxophone
Dick Morrissey - Tenor Saxophone

Includes 12-page booklet of lyrics, musician credits, biography and discography of Chris Rainbow

Chris Rainbow ‎- The Chris Rainbow Anthology 1974-1981 (2001) 2CD



DOWNLOAD LINKS:
Buy Premium To Support Me & Get Resumable Support & Max Speed


Links are Interchangeable - No Password - Single Extraction

Direct Download

Tags: Rainbow, Rainbow, Anthology

Chris Rainbow ‎- The Chris Rainbow Anthology 1974-1981 (2001) 2CD Download via Hotfile Rapidshare Fileserve Megaupload & FileSonic, Chris Rainbow ‎- The Chris Rainbow Anthology 1974-1981 (2001) 2CD free torrent downloads included crack, serial, keygen.


Attention!Information

Members of Guest cannot leave comments.