T-Bone Walker - Goodbye Blues (2005)

Download Now

T-Bone Walker - Goodbye Blues (2005)

T-Bone Walker - Goodbye Blues (2005)
Blues | 4cd | EAC Rip | Flac + Cue + Log | covers
Membran 222490-444 | rel: 2005 | 1200Mb

Aaron Thibeaux "T-Bone" Walker (May 28, 1910 - March 16, 1975) was a critically acclaimed American blues guitarist, singer, songwriter and multi-instrumentalist, who was an influential pioneer and innovator of the jump blues and electric blues sound. In 2011, Rolling Stone magazine ranked him at number 67 on their list of "The 100 Greatest Guitarists of All Time"
~Wikipedia

Track listing
cd1:
01. Trinity River Blues (3:10)
02. Wichita Falls Blues (3:11)
03. T-Bone Blues (3:18)
04. I Got A Break Baby (3:18)
05. Mean Old World (2:55)
06. Low Down Dirty Shame (2:38)
07. Sail On Boogie (2:39)
08. Mean Old World Blues (2:53)
09. You Don't Love Me Blues (2:38)
10. T-Bone Boogie (3:03)
11. I'm Still In Love With You (2:54)
12. Evening (3:29)
13. My Baby Left Me (2:54)
14. Come Back To Me Baby (3:07)
15. She's Going To Ruin Me (2:56)
16. I Can't Stand Being Away From You (3:10)
17. No Worry Blues (2:44)
18. Don't Leave Me Baby (2:49)
19. Bobby Sox Blues (2:40)
20. I'm Gonna Find My Baby (2:56)
21. I Know Your Wig Is Gone (2:45)
22. T-Bone Jumps Again (2:43)
23. Call It Stormy Monday (3:02)
24. She Had To Let Me Down (3:08)
~ (71:00)

cd2:
01. She's My Old Time Used-To-Be (2:40)
02. Dream Girl Blues (2:41)
03. Midnight Blues (2:45)
04. Long Lost Lover Blues (2:56)
05. Triflin' Woman Blues (3:05)
06. Long Skirt Baby Blues (2:52)
07. Goodbye Blues (3:10)
08. Too Much Trouble Blues (2:44)
09. I'm Waiting For Your Call (3:02)
10. Hypin' Woman Blues (2:49)
11. So Blue Blues (3:09)
12. On Your Way Blues (2:54)
13. The Natural Blues (3:05)
14. That's Better For Me (2:39)
15. First Love Blues (3:09)
16. Lonesome Woman Blues (2:40)
17. Vacation Blues (2:56)
18. Inspiration Blues (2:48)
19. Description Blues (3:07)
20. T-Bone Shuffle (2:59)
21. No Worry Blues (2:44)
22. Don't Leave Me Baby (2:49)
23. Bobby Sox Baby (2:40)
24. I'm Gonna Find My Baby (2:54)
~ (69:14)

cd3:
01. I'm In An Awful Mood (2:45)
02. It's A Lowdown Dirty Deal (2:56)
03. Don't Give Me The Runaround (3:04)
04. Hard Pain Blues (3:03)
05. I Know Your Wig Is Gone (2:45)
06. T-Bone Jumps Again (2:43)
07. Call It Stormy Monday (3:02)
08. She Had To Let Me Down (3:11)
09. She's My Old Time Use-To-Be (2:40)
10. Dream Girl Blues (2:40)
11. Midnight Blues (2:45)
12. Long Lost Lover Blues (2:56)
13. Triflin' Woman Blues (3:04)
14. Long Skirt Baby Blues (2:51)
15. Goodbye Blues (3:10)
16. Too Much Trouble Blues (2:44)
17. I'm Waiting For Your Call (3:02)
18. Hypin' Woman Blues (2:49)
19. So Blue Blues (3:09)
20. On Your Way Blues (2:53)
21. Natural Blues (3:05)
22. That's Better For Me (2:39)
23. First Love Blues (3:09)
24. Lonesome Woman Blues (2:38)
~ (69:44)

cd4:
01. Vacation Blues (2:54)
02. Inspiration Blues (2:48)
03. Description Blues (3:07)
04. T-Bone Shuffle (3:00)
05. That Old Feelin' Is Gone (2:54)
06. The Time Seems So Long (2:47)
07. Prison Blues (2:51)
08. Hometown Blues (2:57)
09. Wise Man Blues (3:00)
10. Misfortune Blues (3:01)
11. I Wish You Were Mine (2:54)
12. I'm Gonna Move You Out (2:58)
13. She's The No-Sleepin'est Woman (3:06)
14. Pain Old Down Home Blues (3:06)
15. Born To Be No Good (3:13)
16. Go Back To The One You Love (old) (2:29)
17. Go Back To The One You Love (3:04)
18. I Want A Little Girl (2:47)
19. I'm Still In Love With You (2:57)
20. You're My Best Poker Hand (2:56)
21. West Side Baby (2:45)
~ (61:33)

Exact Audio Copy V1.0 beta 1 from 15. November 2010

EAC extraction logfile from 27. August 2011, 21:08

T-Bone Walker / Goodbye Blues (Disk 1)

Used drive : PIONEER DVD-RW DVR-219L Adapter: 4 ID: 0

Read mode : Secure
Utilize accurate stream : Yes
Defeat audio cache : Yes
Make use of C2 pointers : No

Read offset correction

: 6
Overread into Lead-In and Lead-Out : No
Fill up missing offset samples with silence : Yes
Delete leading and trailing silent blocks : No
Null samples used in CRC calculations : Yes
Used interface
: Native Win32 interface for Win NT & 2000
Gap handling
: Appended to previous track

Used output format : User Defined Encoder
Selected bitrate : 256 kBit/s
Quality : High
Add ID3 tag : No
Command line compressor : D:\Exact Audio Copy\flac.exe
Additional command line options : -8 -V -T "ARTIST=%a" -T "TITLE=%t" -T "ALBUM=%g" -T "DATE=%y" -T "TRACKNUMBER=%n" -T "TOTALTRACKS=%x" -T "GENRE=%m" -T "ALBUMARTIST=%v" -T "ALBUM ARTIST=%v" -T "COMMENT=EAC Secure Mode, Test & Copy, AccurateRip, FLAC -8" %s

TOC of the extracted CD Track | Start | Length | Start sector | End sector
1 | 0:00.00 | 3:09.45 | 0 | 14219 2 | 3:09.45 | 3:10.38 | 14220 | 28507 3 | 6:20.08 | 3:17.48 | 28508 | 43330 4 | 9:37.56 | 3:18.28 | 43331 | 58208 5 | 12:56.09 | 2:55.12 | 58209 | 71345 6 | 15:51.21 | 2:37.39 | 71346 | 83159 7 | 18:28.60 | 2:39.27 | 83160 | 95111 8 | 21:08.12 | 2:52.62 | 95112 | 108073 9 | 24:00.74 | 2:37.52 | 108074 | 119900
10 | 26:38.51 | 3:03.34 | 119901 | 133659
11 | 29:42.10 | 2:54.09 | 133660 | 146718
12 | 32:36.19 | 3:29.13 | 146719 | 162406
13 | 36:05.32 | 2:54.01 | 162407 | 175457
14 | 38:59.33 | 3:07.05 | 175458 | 189487
15 | 42:06.38 | 2:56.14 | 189488 | 202701
16 | 45:02.52 | 3:10.35 | 202702 | 216986
17 | 48:13.12 | 2:43.53 | 216987 | 229264
18 | 50:56.65 | 2:49.08 | 229265 | 241947
19 | 53:45.73 | 2:39.67 | 241948 | 253939
20 | 56:25.65 | 2:55.39 | 253940 | 267103
21 | 59:21.29 | 2:45.01 | 267104 | 279479
22 | 62:06.30 | 2:43.16 | 279480 | 291720
23 | 64:49.46 | 3:01.65 | 291721 | 305360
24 | 67:51.36 | 3:08.22 | 305361 | 319482

Track 1 Filename D:\01 - Trinity River Blues.wav Pre-gap length 0:00:02.00 Peak level 99.9 %
Extraction speed 0.8 X
Track quality 99.9 %
Test CRC 565BB4C8
Copy CRC 565BB4C8
Accurately ripped (confidence 1) [106A12CC]
Copy OK

Track 2 Filename D:\02 - Wichita Falls Blues.wav Pre-gap length 0:00:02.00 Peak level 99.5 %
Extraction speed 1.0 X
Track quality 100.0 %
Test CRC 51EB9FF2
Copy CRC 51EB9FF2
Accurately ripped (confidence 1) [7B95E39C]
Copy OK

Track 3 Filename D:\03 - T-Bone Blues.wav Pre-gap length 0:00:02.00 Peak level 99.5 %
Extraction speed 1.1 X
Track quality 100.0 %
Test CRC DF7C141F
Copy CRC DF7C141F
Accurately ripped (confidence 1) [6A5F9A8B]
Copy OK

Track 4 Filename D:\04 - I Got A Break Baby.wav Pre-gap length 0:00:02.00 Peak level 99.9 %
Extraction speed 1.2 X
Track quality 100.0 %
Test CRC BF5F81CF
Copy CRC BF5F81CF
Accurately ripped (confidence 1) [0A4E2C75]
Copy OK

Track 5 Filename D:\05 - Mean Old World.wav Pre-gap length 0:00:02.00 Peak level 100.0 %
Extraction speed 1.2 X
Track quality 100.0 %
Test CRC A1A5ACEF
Copy CRC A1A5ACEF
Accurately ripped (confidence 1) [8871F5D0]
Copy OK

Track 6 Filename D:\06 - Low Down Dirty Shame.wav Pre-gap length 0:00:02.00 Peak level 99.7 %
Extraction speed 1.2 X
Track quality 100.0 %
Test CRC 891AC4CB
Copy CRC 891AC4CB
Accurately ripped (confidence 1) E33D50C
Copy OK

Track 7 Filename D:\07 - Sail On Boogie.wav Pre-gap length 0:00:02.00 Peak level 99.9 %
Extraction speed 1.3 X
Track quality 100.0 %
Test CRC 2ED2ADCE
Copy CRC 2ED2ADCE
Accurately ripped (confidence 1) [ABCED503]
Copy OK

Track 8 Filename D:\08 - Mean Old World Blues.wav Pre-gap length 0:00:02.00 Peak level 99.6 %
Extraction speed 1.4 X
Track quality 100.0 %
Test CRC 9F19C9A5
Copy CRC 9F19C9A5
Accurately ripped (confidence 1) [01229EC5]
Copy OK

Track 9 Filename D:\09 - You Don't Love Me Blues.wav Pre-gap length 0:00:02.00 Peak level 99.7 %
Extraction speed 1.4 X
Track quality 100.0 %
Test CRC 916808F4
Copy CRC 916808F4
Accurately ripped (confidence 1) [6D77BF43]
Copy OK

Track 10 Filename D:\10 - T-Bone Boogie.wav Pre-gap length 0:00:02.00 Peak level 99.8 %
Extraction speed 1.5 X
Track quality 100.0 %
Test CRC 52638C66
Copy CRC 52638C66
Accurately ripped (confidence 1) [A82D177B]
Copy OK

Track 11 Filename D:\11 - I'm Still In Love With You.wav Pre-gap length 0:00:02.00 Peak level 99.9 %
Extraction speed 1.5 X
Track quality 100.0 %
Test CRC C4CADA78
Copy CRC C4CADA78
Accurately ripped (confidence 1) [06E52CF7]
Copy OK

Track 12 Filename D:\12 - Evening.wav Pre-gap length 0:00:02.00 Peak level 99.9 %
Extraction speed 1.6 X
Track quality 100.0 %
Test CRC A215CC72
Copy CRC A215CC72
Accurately ripped (confidence 1) [A5FF91F2]
Copy OK

Track 13 Filename D:\13 - My Baby Left Me.wav Pre-gap length 0:00:02.00 Peak level 99.8 %
Extraction speed 1.3 X
Track quality 99.9 %
Test CRC 9CFFDC04
Copy CRC 9CFFDC04
Accurately ripped (confidence 1) [2559C9EB]
Copy OK

Track 14 Filename D:\14 - Come Back To Me Baby.wav Pre-gap length 0:00:02.00 Peak level 100.0 %
Extraction speed 1.7 X
Track quality 100.0 %
Test CRC F1AD870D
Copy CRC F1AD870D
Accurately ripped (confidence 1) [4C0185C5]
Copy OK

Track 15 Filename D:\15 - She's Going To Ruin Me.wav Pre-gap length 0:00:02.00 Peak level 98.9 %
Extraction speed 1.7 X
Track quality 100.0 %
Test CRC CF813D25
Copy CRC CF813D25
Accurately ripped (confidence 1) [1618BD9D]
Copy OK

Track 16 Filename D:\16 - I Can't Stand Being Away From You.wav Pre-gap length 0:00:02.00 Peak level 99.6 %
Extraction speed 1.7 X
Track quality 100.0 %
Test CRC 712DC66D
Copy CRC 712DC66D
Accurately ripped (confidence 1) [3EB4CF68]
Copy OK

Track 17 Filename D:\17 - No Worry Blues.wav Pre-gap length 0:00:02.00 Peak level 99.8 %
Extraction speed 1.4 X
Track quality 99.9 %
Test CRC E0E24010
Copy CRC E0E24010
Accurately ripped (confidence 1) [FA3D0834]
Copy OK

Track 18 Filename D:\18 - Don't Leave Me Baby.wav Pre-gap length 0:00:02.00 Peak level 100.0 %
Extraction speed 1.8 X
Track quality 100.0 %
Test CRC DFCA9F4C
Copy CRC DFCA9F4C
Accurately ripped (confidence 1) [19B9DACF]
Copy OK

Track 19 Filename D:\19 - Bobby Sox Blues.wav Pre-gap length 0:00:02.00 Peak level 99.4 %
Extraction speed 1.8 X
Track quality 100.0 %
Test CRC A2BA4AAC
Copy CRC A2BA4AAC
Accurately ripped (confidence 1) [9BAEDF7E]
Copy OK

Track 20 Filename D:\20 - I'm Gonna Find My Baby.wav Pre-gap length 0:00:02.00 Peak level 99.4 %
Extraction speed 1.9 X
Track quality 100.0 %
Test CRC 5E30200A
Copy CRC 5E30200A
Accurately ripped (confidence 1) [E13068F1]
Copy OK

Track 21 Filename D:\21 - I Know Your Wig Is Gone.wav Pre-gap length 0:00:02.00 Peak level 99.9 %
Extraction speed 1.6 X
Track quality 99.9 %
Test CRC 3A45BD21
Copy CRC 3A45BD21
Accurately ripped (confidence 1) [AC50CAAC]
Copy OK

Track 22 Filename D:\22 - T-Bone Jumps Again.wav Pre-gap length 0:00:02.00 Peak level 99.3 %
Extraction speed 1.9 X
Track quality 100.0 %
Test CRC F07782D3
Copy CRC F07782D3
Accurately ripped (confidence 1) [CC4176D0]
Copy OK

Track 23 Filename D:\23 - Call It Stormy Monday.wav Pre-gap length 0:00:02.00 Peak level 99.7 %
Extraction speed 2.0 X
Track quality 100.0 %
Test CRC 2363AF9D
Copy CRC 2363AF9D
Accurately ripped (confidence 1) [9AFF7E25]
Copy OK

Track 24 Filename D:\24 - She Had To Let Me Down.wav Pre-gap length 0:00:02.00 Peak level 99.5 %
Extraction speed 1.7 X
Track quality 99.9 %
Test CRC C5E6D1CE
Copy CRC C5E6D1CE
Accurately ripped (confidence 1) [7728AC84]
Copy OK

All tracks accurately ripped

No errors occurred

End of status report

==== Log checksum 73E0342045871CF4F70ADCB60AD286728608A063D45695510FDE00258E16B1E5 ====
--------
Exact Audio Copy V1.0 beta 1 from 15. November 2010

EAC extraction logfile from 27. August 2011, 23:12

T-Bone Walker / Goodbye Blues (Disk 2)

Used drive : PIONEER DVD-RW DVR-219L Adapter: 4 ID: 0

Read mode : Secure
Utilize accurate stream : Yes
Defeat audio cache : Yes
Make use of C2 pointers : No

Read offset correction

: 6
Overread into Lead-In and Lead-Out : No
Fill up missing offset samples with silence : Yes
Delete leading and trailing silent blocks : No
Null samples used in CRC calculations : Yes
Used interface
: Native Win32 interface for Win NT & 2000
Gap handling
: Appended to previous track

Used output format : User Defined Encoder
Selected bitrate : 256 kBit/s
Quality : High
Add ID3 tag : No
Command line compressor : D:\Exact Audio Copy\flac.exe
Additional command line options : -8 -V -T "ARTIST=%a" -T "TITLE=%t" -T "ALBUM=%g" -T "DATE=%y" -T "TRACKNUMBER=%n" -T "TOTALTRACKS=%x" -T "GENRE=%m" -T "ALBUMARTIST=%v" -T "ALBUM ARTIST=%v" -T "COMMENT=EAC Secure Mode, Test & Copy, AccurateRip, FLAC -8" %s

TOC of the extracted CD Track | Start | Length | Start sector | End sector
1 | 0:00.00 | 2:39.53 | 0 | 11977 2 | 2:39.53 | 2:40.42 | 11978 | 24019 3 | 5:20.20 | 2:45.08 | 24020 | 36402 4 | 8:05.28 | 2:55.70 | 36403 | 49597 5 | 11:01.23 | 3:04.54 | 49598 | 63451 6 | 14:06.02 | 2:51.71 | 63452 | 76347 7 | 16:57.73 | 3:09.64 | 76348 | 90586 8 | 20:07.62 | 2:44.13 | 90587 | 102899 9 | 22:52.00 | 3:01.49 | 102900 | 116523
10 | 25:53.49 | 2:48.50 | 116524 | 129173
11 | 28:42.24 | 3:08.48 | 129174 | 143321
12 | 31:50.72 | 2:53.43 | 143322 | 156339
13 | 34:44.40 | 3:05.01 | 156340 | 170215
14 | 37:49.41 | 2:38.41 | 170216 | 182106
15 | 40:28.07 | 3:09.29 | 182107 | 196310
16 | 43:37.36 | 2:39.49 | 196311 | 208284
17 | 46:17.10 | 2:55.70 | 208285 | 221479
18 | 49:13.05 | 2:48.04 | 221480 | 234083
19 | 52:01.09 | 3:06.47 | 234084 | 248080
20 | 55:07.56 | 2:59.36 | 248081 | 261541
21 | 58:07.17 | 2:43.55 | 261542 | 273821
22 | 60:50.72 | 2:49.12 | 273822 | 286508
23 | 63:40.09 | 2:40.01 | 286509 | 298509
24 | 66:20.10 | 2:53.70 | 298510 | 311554

Track 1 Filename D:\01 - She's My Old Time Used-To-Be.wav Pre-gap length 0:00:02.00 Peak level 99.9 %
Extraction speed 0.7 X
Track quality 99.9 %
Test CRC 1BF28D06
Copy CRC 1BF28D06
Accurately ripped (confidence 1) [2570AD38]
Copy OK

Track 2 Filename D:\02 - Dream Girl Blues.wav Pre-gap length 0:00:02.00 Peak level 99.4 %
Extraction speed 0.9 X
Track quality 100.0 %
Test CRC 80B17376
Copy CRC 80B17376
Accurately ripped (confidence 1) [FF19CE7F]
Copy OK

Track 3 Filename D:\03 - Midnight Blues.wav Pre-gap length 0:00:02.00 Peak level 99.9 %
Extraction speed 1.0 X
Track quality 100.0 %
Test CRC 5B0BBFBD
Copy CRC 5B0BBFBD
Accurately ripped (confidence 1) [319C4ADD]
Copy OK

Track 4 Filename D:\04 - Long Lost Lover Blues.wav Pre-gap length 0:00:02.00 Peak level 99.9 %
Extraction speed 1.1 X
Track quality 100.0 %
Test CRC 9B7C3E71
Copy CRC 9B7C3E71
Accurately ripped (confidence 1) [551CE47E]
Copy OK

Track 5 Filename D:\05 - Triflin' Woman Blues.wav Pre-gap length 0:00:02.00 Peak level 99.9 %
Extraction speed 1.2 X
Track quality 100.0 %
Test CRC 4FADA1FE
Copy CRC 4FADA1FE
Accurately ripped (confidence 1) [A8E05E6F]
Copy OK

Track 6 Filename D:\06 - Long Skirt Baby Blues.wav Pre-gap length 0:00:02.00 Peak level 100.0 %
Extraction speed 1.2 X
Track quality 100.0 %
Test CRC 4DDF35F2
Copy CRC 4DDF35F2
Accurately ripped (confidence 1) [CBE26638]
Copy OK

Track 7 Filename D:\07 - Goodbye Blues.wav Pre-gap length 0:00:02.00 Peak level 99.8 %
Extraction speed 1.3 X
Track quality 100.0 %
Test CRC BEEFF117
Copy CRC BEEFF117
Accurately ripped (confidence 1) [A30933B0]
Copy OK

Track 8 Filename D:\08 - Too Much Trouble Blues.wav Pre-gap length 0:00:02.00 Peak level 100.0 %
Extraction speed 1.3 X
Track quality 100.0 %
Test CRC D8E2D845
Copy CRC D8E2D845
Accurately ripped (confidence 1) [A756D68A]
Copy OK

Track 9 Filename D:\09 - I'm Waiting For Your Call.wav Pre-gap length 0:00:02.00 Peak level 99.7 %
Extraction speed 1.2 X
Track quality 99.9 %
Test CRC B8FD606F
Copy CRC B8FD606F
Accurately ripped (confidence 1) [DC745033]
Copy OK

Track 10 Filename D:\10 - Hypin' Woman Blues.wav Pre-gap length 0:00:02.00 Peak level 100.0 %
Extraction speed 1.2 X
Track quality 99.9 %
Test CRC 0A54A2A7
Copy CRC 0A54A2A7
Accurately ripped (confidence 1) [CC446F7E]
Copy OK

Track 11 Filename D:\11 - So Blue Blues.wav Pre-gap length 0:00:02.00 Peak level 99.9 %
Extraction speed 1.3 X
Track quality 99.9 %
Test CRC 6B1D00A9
Copy CRC 6B1D00A9
Accurately ripped (confidence 1) [D8534E12]
Copy OK

Track 12 Filename D:\12 - On Your Way Blues.wav Pre-gap length 0:00:02.00 Peak level 99.9 %
Extraction speed 1.5 X
Track quality 100.0 %
Test CRC 28679C12
Copy CRC 28679C12
Accurately ripped (confidence 1) [D6CFD488]
Copy OK

Track 13 Filename D:\13 - The Natural Blues.wav Pre-gap length 0:00:02.00 Peak level 100.0 %
Extraction speed 1.6 X
Track quality 100.0 %
Test CRC B776F08A
Copy CRC B776F08A
Accurately ripped (confidence 1) [9D64C7CD]
Copy OK

Track 14 Filename D:\14 - That's Better For Me.wav Pre-gap length 0:00:02.00 Peak level 100.0 %
Extraction speed 1.6 X
Track quality 100.0 %
Test CRC CA22435D
Copy CRC CA22435D
Accurately ripped (confidence 1) [A329CAB3]
Copy OK

Track 15 Filename D:\15 - First Love Blues.wav Pre-gap length 0:00:02.00 Peak level 99.9 %
Extraction speed 1.7 X
Track quality 100.0 %
Test CRC B75EC800
Copy CRC B75EC800
Accurately ripped (confidence 1) [01A0FE4C]
Copy OK

Track 16 Filename D:\16 - Lonesome Woman Blues.wav Pre-gap length 0:00:02.00 Peak level 99.9 %
Extraction speed 1.6 X
Track quality 100.0 %
Test CRC A761FDBC
Copy CRC A761FDBC
Accurately ripped (confidence 1) [5BA56E68]
Copy OK

Track 17 Filename D:\17 - Vacation Blues.wav Pre-gap length 0:00:02.00 Peak level 99.9 %
Extraction speed 1.7 X
Track quality 100.0 %
Test CRC DC52A6BA
Copy CRC DC52A6BA
Accurately ripped (confidence 1) [59587143]
Copy OK

Track 18 Filename D:\18 - Inspiration Blues.wav Pre-gap length 0:00:02.00 Peak level 100.0 %
Extraction speed 1.7 X
Track quality 100.0 %
Test CRC 318F52E2
Copy CRC 318F52E2
Accurately ripped (confidence 1) [5D496C65]
Copy OK

Track 19 Filename D:\19 - Description Blues.wav Pre-gap length 0:00:02.00 Peak level 99.5 %
Extraction speed 1.5 X
Track quality 99.9 %
Test CRC 084AA1A6
Copy CRC 084AA1A6
Accurately ripped (confidence 1) [C21B058D]
Copy OK

Track 20 Filename D:\20 - T-Bone Shuffle.wav Pre-gap length 0:00:02.00 Peak level 99.6 %
Extraction speed 1.8 X
Track quality 100.0 %
Test CRC 4E384D32
Copy CRC 4E384D32
Accurately ripped (confidence 1) [C4AD6FC0]
Copy OK

Track 21 Filename D:\21 - No Worry Blues.wav Pre-gap length 0:00:02.00 Peak level 99.8 %
Extraction speed 1.8 X
Track quality 100.0 %
Test CRC F13326B8
Copy CRC F13326B8
Accurately ripped (confidence 1) [D51F81BF]
Copy OK

Track 22 Filename D:\22 - Don't Leave Me Baby.wav Pre-gap length 0:00:02.00 Peak level 99.9 %
Extraction speed 1.9 X
Track quality 100.0 %
Test CRC BB89CDC0
Copy CRC BB89CDC0
Accurately ripped (confidence 1) [50D7180C]
Copy OK

Track 23 Filename D:\23 - Bobby Sox Baby.wav Pre-gap length 0:00:02.00 Peak level 100.0 %
Extraction speed 1.9 X
Track quality 100.0 %
Test CRC 2377D364
Copy CRC 2377D364
Accurately ripped (confidence 1) [9D1A2FE0]
Copy OK

Track 24 Filename D:\24 - I'm Gonna Find My Baby.wav Pre-gap length 0:00:02.00 Peak level 99.9 %
Extraction speed 1.9 X
Track quality 100.0 %
Test CRC 38B5892F
Copy CRC 38B5892F
Accurately ripped (confidence 1) [43B42C30]
Copy OK

All tracks accurately ripped

No errors occurred

End of status report

==== Log checksum AD63FBE574DB80BB36DCAB54D2A470048B84E51E9F5FA239F77D440B4AF985AF ====
----

Exact Audio Copy V1.0 beta 1 from 15. November 2010

EAC extraction logfile from 28. August 2011, 1:25

T-Bone Walker / Goodbye Blues (Disk 3)

Used drive : PIONEER DVD-RW DVR-219L Adapter: 4 ID: 0

Read mode : Secure
Utilize accurate stream : Yes
Defeat audio cache : Yes
Make use of C2 pointers : No

Read offset correction

: 6
Overread into Lead-In and Lead-Out : No
Fill up missing offset samples with silence : Yes
Delete leading and trailing silent blocks : No
Null samples used in CRC calculations : Yes
Used interface
: Native Win32 interface for Win NT & 2000
Gap handling
: Appended to previous track

Used output format : User Defined Encoder
Selected bitrate : 256 kBit/s
Quality : High
Add ID3 tag : No
Command line compressor : D:\Exact Audio Copy\flac.exe
Additional command line options : -8 -V -T "ARTIST=%a" -T "TITLE=%t" -T "ALBUM=%g" -T "DATE=%y" -T "TRACKNUMBER=%n" -T "TOTALTRACKS=%x" -T "GENRE=%m" -T "ALBUMARTIST=%v" -T "ALBUM ARTIST=%v" -T "COMMENT=EAC Secure Mode, Test & Copy, AccurateRip, FLAC -8" %s

TOC of the extracted CD Track | Start | Length | Start sector | End sector
1 | 0:00.00 | 2:44.51 | 0 | 12350 2 | 2:44.51 | 2:55.54 | 12351 | 25529 3 | 5:40.30 | 3:03.56 | 25530 | 39310 4 | 8:44.11 | 3:02.42 | 39311 | 53002 5 | 11:46.53 | 2:45.13 | 53003 | 65390 6 | 14:31.66 | 2:43.34 | 65391 | 77649 7 | 17:15.25 | 3:02.23 | 77650 | 91322 8 | 20:17.48 | 3:10.46 | 91323 | 105618 9 | 23:28.19 | 2:39.73 | 105619 | 117616
10 | 26:08.17 | 2:40.25 | 117617 | 129641
11 | 28:48.42 | 2:45.15 | 129642 | 142031
12 | 31:33.57 | 2:56.08 | 142032 | 155239
13 | 34:29.65 | 3:04.23 | 155240 | 169062
14 | 37:34.13 | 2:50.66 | 169063 | 181878
15 | 40:25.04 | 3:10.00 | 181879 | 196128
16 | 43:35.04 | 2:44.32 | 196129 | 208460
17 | 46:19.36 | 3:02.29 | 208461 | 222139
18 | 49:21.65 | 2:48.51 | 222140 | 234790
19 | 52:10.41 | 3:08.51 | 234791 | 248941
20 | 55:19.17 | 2:53.21 | 248942 | 261937
21 | 58:12.38 | 3:05.19 | 261938 | 275831
22 | 61:17.57 | 2:39.30 | 275832 | 287786
23 | 63:57.12 | 3:09.21 | 287787 | 301982
24 | 67:06.33 | 2:37.60 | 301983 | 313817

Track 1 Filename D:\01 - I'm In An Awful Mood.wav Pre-gap length 0:00:02.00 Peak level 99.3 %
Extraction speed 0.7 X
Track quality 99.9 %
Test CRC 94177D9E
Copy CRC 94177D9E
Accurately ripped (confidence 1) [7B41CE64]
Copy OK

Track 2 Filename D:\02 - It's A Lowdown Dirty Deal.wav Pre-gap length 0:00:02.00 Peak level 100.0 %
Extraction speed 1.0 X
Track quality 100.0 %
Test CRC 8010496F
Copy CRC 8010496F
Accurately ripped (confidence 1) [EDA9F6E9]
Copy OK

Track 3 Filename D:\03 - Don't Give Me The Runaround.wav Pre-gap length 0:00:02.00 Peak level 99.8 %
Extraction speed 1.0 X
Track quality 100.0 %
Test CRC B073E822
Copy CRC B073E822
Accurately ripped (confidence 1) [47A0E5F3]
Copy OK

Track 4 Filename D:\04 - Hard Pain Blues.wav Pre-gap length 0:00:02.00 Peak level 99.7 %
Extraction speed 1.1 X
Track quality 100.0 %
Test CRC 8B9F1606
Copy CRC 8B9F1606
Accurately ripped (confidence 1) [3C8DB0D4]
Copy OK

Track 5 Filename D:\05 - I Know Your Wig Is Gone.wav Pre-gap length 0:00:02.00 Peak level 99.5 %
Extraction speed 1.1 X
Track quality 100.0 %
Test CRC 64F4C365
Copy CRC 64F4C365
Accurately ripped (confidence 1) [806F50D8]
Copy OK

Track 6 Filename D:\06 - T-Bone Jumps Again.wav Pre-gap length 0:00:02.00 Peak level 99.9 %
Extraction speed 1.2 X
Track quality 100.0 %
Test CRC 18F9670D
Copy CRC 18F9670D
Accurately ripped (confidence 1) [0A624A5E]
Copy OK

Track 7 Filename D:\07 - Call It Stormy Monday.wav Pre-gap length 0:00:02.00 Peak level 99.4 %
Extraction speed 1.1 X
Track quality 99.9 %
Test CRC 86B86443
Copy CRC 86B86443
Accurately ripped (confidence 1) [FD3695E0]
Copy OK

Track 8 Filename D:\08 - She Had To Let Me Down.wav Pre-gap length 0:00:02.00 Peak level 100.0 %
Extraction speed 1.1 X
Track quality 99.9 %
Test CRC 08730D0C
Copy CRC 08730D0C
Accurately ripped (confidence 1) [A12FB825]
Copy OK

Track 9 Filename D:\09 - She's My Old Time Use-To-Be.wav Pre-gap length 0:00:02.00 Peak level 99.7 %
Extraction speed 1.4 X
Track quality 100.0 %
Test CRC 0F7ACB7C
Copy CRC 0F7ACB7C
Accurately ripped (confidence 1) [1B6CB776]
Copy OK

Track 10 Filename D:\10 - Dream Girl Blues.wav Pre-gap length 0:00:02.00 Peak level 99.9 %
Extraction speed 1.4 X
Track quality 100.0 %
Test CRC CF3FBE00
Copy CRC CF3FBE00
Accurately ripped (confidence 1) [2E2EF8E1]
Copy OK

Track 11 Filename D:\11 - Midnight Blues.wav Pre-gap length 0:00:02.00 Peak level 100.0 %
Extraction speed 1.4 X
Track quality 100.0 %
Test CRC 78529186
Copy CRC 78529186
Accurately ripped (confidence 1) [56262561]
Copy OK

Track 12 Filename D:\12 - Long Lost Lover Blues.wav Pre-gap length 0:00:02.00 Peak level 99.9 %
Extraction speed 1.5 X
Track quality 100.0 %
Test CRC 460E7D5D
Copy CRC 460E7D5D
Accurately ripped (confidence 1) [43C64708]
Copy OK

Track 13 Filename D:\13 - Triflin' Woman Blues.wav Pre-gap length 0:00:02.00 Peak level 99.8 %
Extraction speed 1.3 X
Track quality 99.9 %
Test CRC 3B0E8E3B
Copy CRC 3B0E8E3B
Accurately ripped (confidence 1) [8BF29AC4]
Copy OK

Track 14 Filename D:\14 - Long Skirt Baby Blues.wav Pre-gap length 0:00:02.00 Peak level 99.5 %
Extraction speed 1.6 X
Track quality 100.0 %
Test CRC 7CE4C916
Copy CRC 7CE4C916
Accurately ripped (confidence 1) [623401C1]
Copy OK

Track 15 Filename D:\15 - Goodbye Blues.wav Pre-gap length 0:00:02.00 Peak level 100.0 %
Extraction speed 1.7 X
Track quality 100.0 %
Test CRC 15D384D3
Copy CRC 15D384D3
Accurately ripped (confidence 1) 5E8E2AD
Copy OK

Track 16 Filename D:\16 - Too Much Trouble Blues.wav Pre-gap length 0:00:02.00 Peak level 99.8 %
Extraction speed 1.7 X
Track quality 100.0 %
Test CRC F26FE34A
Copy CRC F26FE34A
Accurately ripped (confidence 1) [E0083244]
Copy OK

Track 17 Filename D:\17 - I'm Waiting For Your Call.wav Pre-gap length 0:00:02.00 Peak level 99.1 %
Extraction speed 1.7 X
Track quality 100.0 %
Test CRC 47CCD95F
Copy CRC 47CCD95F
Accurately ripped (confidence 1) [E4902DBF]
Copy OK

Track 18 Filename D:\18 - Hypin' Woman Blues.wav Pre-gap length 0:00:02.00 Peak level 99.4 %
Extraction speed 1.5 X
Track quality 99.9 %
Test CRC 791E1675
Copy CRC 791E1675
Accurately ripped (confidence 1) [7E06BD02]
Copy OK

Track 19 Filename D:\19 - So Blue Blues.wav Pre-gap length 0:00:02.00 Peak level 100.0 %
Extraction speed 1.8 X
Track quality 100.0 %
Test CRC 254C16BD
Copy CRC 254C16BD
Accurately ripped (confidence 1) [45C962D7]
Copy OK

Track 20 Filename D:\20 - On Your Way Blues.wav Pre-gap length 0:00:02.00 Peak level 99.9 %
Extraction speed 1.8 X
Track quality 100.0 %
Test CRC DAB9557C
Copy CRC DAB9557C
Accurately ripped (confidence 1) [8A22B1F0]
Copy OK

Track 21 Filename D:\21 - Natural Blues.wav Pre-gap length 0:00:02.00 Peak level 99.6 %
Extraction speed 1.9 X
Track quality 100.0 %
Test CRC 39F1FC2F
Copy CRC 39F1FC2F
Accurately ripped (confidence 1) [5A4C3841]
Copy OK

Track 22 Filename D:\22 - That's Better For Me.wav Pre-gap length 0:00:02.00 Peak level 99.4 %
Extraction speed 1.6 X
Track quality 99.9 %
Test CRC A52B7959
Copy CRC A52B7959
Accurately ripped (confidence 1) [6481101B]
Copy OK

Track 23 Filename D:\23 - First Love Blues.wav Pre-gap length 0:00:02.00 Peak level 99.1 %
Extraction speed 1.7 X
Track quality 99.9 %
Test CRC 8D7A1642
Copy CRC 8D7A1642
Accurately ripped (confidence 1) [697858A9]
Copy OK

Track 24 Filename D:\24 - Lonesome Woman Blues.wav Pre-gap length 0:00:02.00 Peak level 99.6 %
Extraction speed 1.9 X
Track quality 100.0 %
Test CRC 7DE2BC58
Copy CRC 7DE2BC58
Accurately ripped (confidence 1) [5B89889A]
Copy OK

All tracks accurately ripped

No errors occurred

End of status report

==== Log checksum 35FC891E7E4CA010AB0DAA0297F8BE3649445968107A40A5470A57425EA3FEB8 ====
----

Exact Audio Copy V1.0 beta 1 from 15. November 2010

EAC extraction logfile from 28. August 2011, 8:29

T-Bone Walker / Goodbye Blues (Disk 4)

Used drive : PIONEER DVD-RW DVR-219L Adapter: 4 ID: 0

Read mode : Secure
Utilize accurate stream : Yes
Defeat audio cache : Yes
Make use of C2 pointers : No

Read offset correction

: 6
Overread into Lead-In and Lead-Out : No
Fill up missing offset samples with silence : Yes
Delete leading and trailing silent blocks : No
Null samples used in CRC calculations : Yes
Used interface
: Native Win32 interface for Win NT & 2000
Gap handling
: Appended to previous track

Used output format : User Defined Encoder
Selected bitrate : 256 kBit/s
Quality : High
Add ID3 tag : No
Command line compressor : D:\Exact Audio Copy\flac.exe
Additional command line options : -8 -V -T "ARTIST=%a" -T "TITLE=%t" -T "ALBUM=%g" -T "DATE=%y" -T "TRACKNUMBER=%n" -T "TOTALTRACKS=%x" -T "GENRE=%m" -T "ALBUMARTIST=%v" -T "ALBUM ARTIST=%v" -T "COMMENT=EAC Secure Mode, Test & Copy, AccurateRip, FLAC -8" %s

TOC of the extracted CD Track | Start | Length | Start sector | End sector
1 | 0:00.00 | 2:54.35 | 0 | 13084 2 | 2:54.35 | 2:48.11 | 13085 | 25695 3 | 5:42.46 | 3:06.74 | 25696 | 39719 4 | 8:49.45 | 2:59.55 | 39720 | 53199 5 | 11:49.25 | 2:53.72 | 53200 | 66246 6 | 14:43.22 | 2:46.65 | 66247 | 78761 7 | 17:30.12 | 2:50.54 | 78762 | 91565 8 | 20:20.66 | 2:57.07 | 91566 | 104847 9 | 23:17.73 | 3:00.00 | 104848 | 118347
10 | 26:17.73 | 3:00.63 | 118348 | 131910
11 | 29:18.61 | 2:54.33 | 131911 | 144993
12 | 32:13.19 | 2:58.26 | 144994 | 158369
13 | 35:11.45 | 3:05.45 | 158370 | 172289
14 | 38:17.15 | 3:05.60 | 172290 | 186224
15 | 41:23.00 | 3:12.48 | 186225 | 200672
16 | 44:35.48 | 2:28.69 | 200673 | 211841
17 | 47:04.42 | 3:04.19 | 211842 | 225660
18 | 50:08.61 | 2:46.64 | 225661 | 238174
19 | 52:55.50 | 2:56.61 | 238175 | 251435
20 | 55:52.36 | 2:55.44 | 251436 | 264604
21 | 58:48.05 | 2:45.21 | 264605 | 277000

Track 1 Filename D:\01 - Vacation Blues.wav Pre-gap length 0:00:02.00 Peak level 99.7 %
Extraction speed 0.9 X
Track quality 100.0 %
Test CRC A6DC46CF
Copy CRC A6DC46CF
Accurately ripped (confidence 1) [283D95CA]
Copy OK

Track 2 Filename D:\02 - Inspiration Blues.wav Pre-gap length 0:00:02.00 Peak level 99.9 %
Extraction speed 0.9 X
Track quality 100.0 %
Test CRC 089E493F
Copy CRC 089E493F
Accurately ripped (confidence 1) [3D208D48]
Copy OK

Track 3 Filename D:\03 - Description Blues.wav Pre-gap length 0:00:02.00 Peak level 99.7 %
Extraction speed 1.0 X
Track quality 100.0 %
Test CRC A411A6EC
Copy CRC A411A6EC
Accurately ripped (confidence 1) [39E1E44D]
Copy OK

Track 4 Filename D:\04 - T-Bone Shuffle.wav Pre-gap length 0:00:02.00 Peak level 100.0 %
Extraction speed 1.1 X
Track quality 100.0 %
Test CRC 140D5F2D
Copy CRC 140D5F2D
Accurately ripped (confidence 1) [64FD30CB]
Copy OK

Track 5 Filename D:\05 - That Old Feelin' Is Gone.wav Pre-gap length 0:00:02.00 Peak level 99.9 %
Extraction speed 1.2 X
Track quality 100.0 %
Test CRC 1A807CB0
Copy CRC 1A807CB0
Accurately ripped (confidence 1) [62794092]
Copy OK

Track 6 Filename D:\06 - The Time Seems So Long.wav Pre-gap length 0:00:02.00 Peak level 99.9 %
Extraction speed 1.2 X
Track quality 100.0 %
Test CRC 084479F7
Copy CRC 084479F7
Accurately ripped (confidence 1) [D8629766]
Copy OK

Track 7 Filename D:\07 - Prison Blues.wav Pre-gap length 0:00:02.00 Peak level 100.0 %
Extraction speed 1.3 X
Track quality 100.0 %
Test CRC 8CF25DF3
Copy CRC 8CF25DF3
Accurately ripped (confidence 1) [572D0585]
Copy OK

Track 8 Filename D:\08 - Hometown Blues.wav Pre-gap length 0:00:02.00 Peak level 99.7 %
Extraction speed 1.3 X
Track quality 100.0 %
Test CRC EAEE9C38
Copy CRC EAEE9C38
Accurately ripped (confidence 1) [8E1E0770]
Copy OK

Track 9 Filename D:\09 - Wise Man Blues.wav Pre-gap length 0:00:02.00 Peak level 99.7 %
Extraction speed 1.2 X
Track quality 99.9 %
Test CRC 20DE9BCD
Copy CRC 20DE9BCD
Accurately ripped (confidence 1) [0CEB0394]
Copy OK

Track 10 Filename D:\10 - Misfortune Blues.wav Pre-gap length 0:00:02.00 Peak level 99.7 %
Extraction speed 1.4 X
Track quality 100.0 %
Test CRC FA8E9C06
Copy CRC FA8E9C06
Accurately ripped (confidence 1) [6E95B2BE]
Copy OK

Track 11 Filename D:\11 - I Wish You Were Mine.wav Pre-gap length 0:00:02.00 Peak level 99.4 %
Extraction speed 1.5 X
Track quality 100.0 %
Test CRC 6C491836
Copy CRC 6C491836
Accurately ripped (confidence 1) [1687B05F]
Copy OK

Track 12 Filename D:\12 - I'm Gonna Move You Out.wav Pre-gap length 0:00:02.00 Peak level 99.9 %
Extraction speed 1.5 X
Track quality 100.0 %
Test CRC B9E261D0
Copy CRC B9E261D0
Accurately ripped (confidence 1) [0C6990D5]
Copy OK

Track 13 Filename D:\13 - She's The No-Sleepin'est Woman.wav Pre-gap length 0:00:02.00 Peak level 99.6 %
Extraction speed 1.3 X
Track quality 99.9 %
Test CRC F0A4416A
Copy CRC F0A4416A
Accurately ripped (confidence 1) [D81298F8]
Copy OK

Track 14 Filename D:\14 - Pain Old Down Home Blues.wav Pre-gap length 0:00:02.00 Peak level 99.3 %
Extraction speed 1.6 X
Track quality 100.0 %
Test CRC FEC4AB34
Copy CRC FEC4AB34
Accurately ripped (confidence 1) [32893E9F]
Copy OK

Track 15 Filename D:\15 - Born To Be No Good.wav Pre-gap length 0:00:02.00 Peak level 99.8 %
Extraction speed 1.7 X
Track quality 100.0 %
Test CRC 3124901A
Copy CRC 3124901A
Accurately ripped (confidence 1) [81707A91]
Copy OK

Track 16 Filename D:\16 - Go Back To The One You Love (old).wav Pre-gap length 0:00:02.00 Peak level 99.5 %
Extraction speed 1.6 X
Track quality 100.0 %
Test CRC 81C2075B
Copy CRC 81C2075B
Accurately ripped (confidence 1) [1A56B451]
Copy OK

Track 17 Filename D:\17 - Go Back To The One You Love.wav Pre-gap length 0:00:02.00 Peak level 99.9 %
Extraction speed 1.7 X
Track quality 100.0 %
Test CRC 59247489
Copy CRC 59247489
Accurately ripped (confidence 1) [A1F88873]
Copy OK

Track 18 Filename D:\18 - I Want A Little Girl.wav Pre-gap length 0:00:02.00 Peak level 99.5 %
Extraction speed 1.8 X
Track quality 100.0 %
Test CRC C531189E
Copy CRC C531189E
Accurately ripped (confidence 1) [FBC9EFA6]
Copy OK

Track 19 Filename D:\19 - I'm Still In Love With You.wav Pre-gap length 0:00:02.00 Peak level 99.1 %
Extraction speed 1.8 X
Track quality 100.0 %
Test CRC 24F0009F
Copy CRC 24F0009F
Accurately ripped (confidence 1) [3DC28184]
Copy OK

Track 20 Filename D:\20 - You're My Best Poker Hand.wav Pre-gap length 0:00:02.00 Peak level 98.7 %
Extraction speed 1.8 X
Track quality 100.0 %
Test CRC 8DE81BBD
Copy CRC 8DE81BBD
Accurately ripped (confidence 1) [D5B59C97]
Copy OK

Track 21 Filename D:\21 - West Side Baby.wav Pre-gap length 0:00:02.00 Peak level 99.6 %
Extraction speed 1.9 X
Track quality 100.0 %
Test CRC 976C2911
Copy CRC 976C2911
Accurately ripped (confidence 1) [D52008A8]
Copy OK

All tracks accurately ripped

No errors occurred

End of status report

==== Log checksum E00E264AAEDB60F6D3BCA15476ADAD1C153A81B71C0383A064013AC2F4601921 ====

[CUETools log; Date: 2015.06.08. 16:04:13; Version: 2.1.5]
[CTDB TOCID: 1Pglv6F5QBpmf8KQqquMbUJW8Gw-] disk not present in database.
[AccurateRip ID: 003d9bd0-04273a38-6c10a318] found.
Track [ CRC | V2 ] Status
01 [106a12cc|cc7d50f1] (1+0/1) Accurately ripped
02 [7b95e39c|072fb286] (1+0/1) Accurately ripped
03 [6a5f9a8b|a1302ec9] (1+0/1) Accurately ripped
04 [0a4e2c75|65ebf54e] (1+0/1) Accurately ripped
05 [8871f5d0|acf59029] (1+0/1) Accurately ripped
06 e33d50c|80b255eb (1+0/1) Accurately ripped
07 [abced503|b5c9c1b1] (1+0/1) Accurately ripped
08 [01229ec5|4ba5ac2e] (1+0/1) Accurately ripped
09 [6d77bf43|7d1db27a] (1+0/1) Accurately ripped
10 [a82d177b|0d0af4f9] (1+0/1) Accurately ripped
11 [06e52cf7|280915f5] (1+0/1) Accurately ripped
12 [a5ff91f2|0e0f517e] (1+0/1) Accurately ripped
13 [2559c9eb|4035478c] (1+0/1) Accurately ripped
14 [4c0185c5|63dfb92c] (1+0/1) Accurately ripped
15 [1618bd9d|06fa2eb3] (1+0/1) Accurately ripped
16 [3eb4cf68|1a6130b8] (1+0/1) Accurately ripped
17 [fa3d0834|fdddb7fd] (1+0/1) Accurately ripped
18 [19b9dacf|2c91f188] (1+0/1) Accurately ripped
19 [9baedf7e|5b646eb3] (1+0/1) Accurately ripped
20 [e13068f1|6921513c] (1+0/1) Accurately ripped
21 [ac50caac|b6e1b457] (1+0/1) Accurately ripped
22 [cc4176d0|ec3c8e09] (1+0/1) Accurately ripped
23 [9aff7e25|b496296a] (1+0/1) Accurately ripped
24 [7728ac84|add850d9] (1+0/1) Accurately ripped

Track Peak [ CRC32 ] [W/O NULL] [ LOG ]
-- 100,0 [5203B30A] [C891A5E0]
01 99,9 [565BB4C8] [90862DA8] CRC32
02 99,5 [51EB9FF2] [316457FB] CRC32
03 99,5 [DF7C141F] [153F6965] CRC32
04 99,9 F5F81CF [86CAE13F] CRC32
05 100,0 [A1A5ACEF] [C6F47485] CRC32
06 99,7 [891AC4CB] [FF03370F] CRC32
07 99,9 [2ED2ADCE] [0A027DBA] CRC32
08 99,6 [9F19C9A5] [9F10C53C] CRC32
09 99,7 [916808F4] [4CD5EFEB] CRC32
10 99,8 [52638C66] [0063BF38] CRC32
11 99,9 [C4CADA78] [2C3D88B9] CRC32
12 99,9 [A215CC72] [3B58C412] CRC32
13 99,8 [9CFFDC04] B26C479 CRC32
14 100,0 [F1AD870D] [38FC3895] CRC32
15 98,9 [CF813D25] [35AABDCA] CRC32
16 99,6 [712DC66D] [81E6A53A] CRC32
17 99,8 [E0E24010] [4E5055AD] CRC32
18 100,0 [DFCA9F4C] [6108735E] CRC32
19 99,4 [A2BA4AAC] [52A5FE3E] CRC32
20 99,4 [5E30200A] [E10CCFD1] CRC32
21 99,9 [3A45BD21] [D1E41F2D] CRC32
22 99,3 [F07782D3] [E99BFFA5] CRC32
23 99,7 [2363AF9D] [89D3E624] CRC32
24 99,5 [C5E6D1CE] [036C2A67] CRC32
----------
[CUETools log; Date: 2015.06.08. 16:06:11; Version: 2.1.5]
[CTDB TOCID: h7Zvt9jrNc4qWBryZCuhm2jT_dk-] disk not present in database.
[AccurateRip ID: 003b679c-0408309b-63103a18] found.
Track [ CRC | V2 ] Status
01 [2570ad38|96ef7538] (1+0/1) Accurately ripped
02 [ff19ce7f|e2e908bb] (1+0/1) Accurately ripped
03 [319c4add|edce008f] (1+0/1) Accurately ripped
04 [551ce47e|407b59ae] (1+0/1) Accurately ripped
05 [a8e05e6f|6d445f8a] (1+0/1) Accurately ripped
06 [cbe26638|bf54b27f] (1+0/1) Accurately ripped
07 [a30933b0|1c0574d4] (1+0/1) Accurately ripped
08 [a756d68a|9e109eb1] (1+0/1) Accurately ripped
09 [dc745033|6f6d3464] (1+0/1) Accurately ripped
10 [cc446f7e|7db1e097] (1+0/1) Accurately ripped
11 [d8534e12|62ae1a6d] (1+0/1) Accurately ripped
12 [d6cfd488|0a75abb9] (1+0/1) Accurately ripped
13 [9d64c7cd|355b079c] (1+0/1) Accurately ripped
14 [a329cab3|c6424ab5] (1+0/1) Accurately ripped
15 [01a0fe4c|87cc5534] (1+0/1) Accurately ripped
16 [5ba56e68|698d7a2a] (1+0/1) Accurately ripped
17 [59587143|963d6c60] (1+0/1) Accurately ripped
18 [5d496c65|91d5f3b9] (1+0/1) Accurately ripped
19 [c21b058d|efa5cc97] (1+0/1) Accurately ripped
20 [c4ad6fc0|1e987f4b] (1+0/1) Accurately ripped
21 [d51f81bf|078b2034] (1+0/1) Accurately ripped
22 [50d7180c|6c2a1d5e] (1+0/1) Accurately ripped
23 [9d1a2fe0|8d624f92] (1+0/1) Accurately ripped
24 [43b42c30|725abe04] (1+0/1) Accurately ripped

Track Peak [ CRC32 ] [W/O NULL] [ LOG ]
-- 100,0 [1BFB8267] [ED36A10A]
01 99,9 [1BF28D06] [2B168A4A] CRC32
02 99,4 [80B17376] 83FE192 CRC32
03 99,9 [5B0BBFBD] [1343215B] CRC32
04 99,9 [9B7C3E71] [45830166] CRC32
05 99,9 [4FADA1FE] [7A32851C] CRC32
06 99,9 [4DDF35F2] [00E52B70] CRC32
07 99,8 EEFF117 0652985 CRC32
08 100,0 [D8E2D845] [8D7029F1] CRC32
09 99,7 8FD606F [E54D8C9C] CRC32
10 100,0 [0A54A2A7] [17840CFC] CRC32
11 99,9 [6B1D00A9] [06CC449D] CRC32
12 99,9 [28679C12] [33AF9010] CRC32
13 100,0 776F08A [445BFC55] CRC32
14 100,0 [CA22435D] [E6D002CD] CRC32
15 99,9 75EC800 [C655581D] CRC32
16 99,9 [A761FDBC] [587BB96A] CRC32
17 99,9 [DC52A6BA] [50ABD546] CRC32
18 99,9 [318F52E2] [787DA130] CRC32
19 99,5 [084AA1A6] [70F9C643] CRC32
20 99,6 [4E384D32] [6DE370F1] CRC32
21 99,8 [F13326B8] [F09F7119] CRC32
22 99,9 B89CDC0 [E6E495AD] CRC32
23 99,9 [2377D364] [6BBF53DC] CRC32
24 99,9 [38B5892F] [014605C2] CRC32
----

[CUETools log; Date: 2015.06.08. 16:07:14; Version: 2.1.5]
[CTDB TOCID: h0P1AjsjAxSG7gvdcykeeLdnyK0-] disk not present in database.
[AccurateRip ID: 003bc6a0-040d03f1-56105818] found.
Track [ CRC | V2 ] Status
01 [7b41ce64|e311ab3f] (1+0/1) Accurately ripped
02 [eda9f6e9|bc91ea26] (1+0/1) Accurately ripped
03 [47a0e5f3|549d7682] (1+0/1) Accurately ripped
04 [3c8db0d4|5cb03ac1] (1+0/1) Accurately ripped
05 [806f50d8|5b2af1b7] (1+0/1) Accurately ripped
06 [0a624a5e|2599cfe2] (1+0/1) Accurately ripped
07 [fd3695e0|b832ed27] (1+0/1) Accurately ripped
08 [a12fb825|fe0d26a0] (1+0/1) Accurately ripped
09 [1b6cb776|952ef05a] (1+0/1) Accurately ripped
10 [2e2ef8e1|8b384c82] (1+0/1) Accurately ripped
11 [56262561|9ed17d04] (1+0/1) Accurately ripped
12 [43c64708|2d48963b] (1+0/1) Accurately ripped
13 [8bf29ac4|4fb0f614] (1+0/1) Accurately ripped
14 [623401c1|f0a0de11] (1+0/1) Accurately ripped
15 5e8e2ad|c6b2c54f (1+0/1) Accurately ripped
16 [e0083244|2aec064d] (1+0/1) Accurately ripped
17 [e4902dbf|871392f1] (1+0/1) Accurately ripped
18 [7e06bd02|512e2a26] (1+0/1) Accurately ripped
19 [45c962d7|570fd43f] (1+0/1) Accurately ripped
20 [8a22b1f0|7d9f8c50] (1+0/1) Accurately ripped
21 [5a4c3841|ac5b1cd1] (1+0/1) Accurately ripped
22 [6481101b|e2634ffa] (1+0/1) Accurately ripped
23 [697858a9|b25957d8] (1+0/1) Accurately ripped
24 [5b89889a|79785f9b] (1+0/1) Accurately ripped

Track Peak [ CRC32 ] [W/O NULL] [ LOG ]
-- 100,0 [D05A20EC] [5D17A40B]
01 99,3 [94177D9E] [9FCA96CB] CRC32
02 100,0 [8010496F] 6352E15 CRC32
03 99,8 073E822 [92F6FCB2] CRC32
04 99,7 [8B9F1606] [0B926CD6] CRC32
05 99,5 [64F4C365] [D2C7B1B9] CRC32
06 99,9 [18F9670D] [4D3585BC] CRC32
07 99,4 [86B86443] E68FB18 CRC32
08 100,0 [08730D0C] [CD2552A9] CRC32
09 99,7 [0F7ACB7C] [5FD0E5DE] CRC32
10 99,9 [CF3FBE00] [C22C6073] CRC32
11 100,0 [78529186] [0BDF01DD] CRC32
12 99,9 [460E7D5D] [E645663C] CRC32
13 99,8 [3B0E8E3B] [7741C5D5] CRC32
14 99,5 [7CE4C916] [75835387] CRC32
15 100,0 [15D384D3] [49438BF5] CRC32
16 99,8 [F26FE34A] 2921DFA CRC32
17 99,1 [47CCD95F] [A99E1F9F] CRC32
18 99,4 [791E1675] [DBB96DFE] CRC32
19 100,0 [254C16BD] [876CAED5] CRC32
20 99,9 [DAB9557C] [E1FC6D26] CRC32
21 99,6 [39F1FC2F] [52CC7C63] CRC32
22 99,4 [A52B7959] [EC8056FA] CRC32
23 99,1 [8D7A1642] [D6F9CF7C] CRC32
24 99,6 [7DE2BC58] [71D91E11] CRC32
----
[CUETools log; Date: 2015.06.08. 16:08:40; Version: 2.1.5]
[CTDB TOCID: eHrbtN9tc7V7y5A0GWxDviyqwGs-] disk not present in database.
[AccurateRip ID: 002e9c3f-02cb300d-260e6d15] found.
Track [ CRC | V2 ] Status
01 [283d95ca|d19a62ee] (1+0/1) Accurately ripped
02 [3d208d48|0a7eb652] (1+0/1) Accurately ripped
03 [39e1e44d|10a5e15f] (1+0/1) Accurately ripped
04 [64fd30cb|6e34e45e] (1+0/1) Accurately ripped
05 [62794092|389e3f30] (1+0/1) Accurately ripped
06 [d8629766|ab2d8119] (1+0/1) Accurately ripped
07 [572d0585|96e30631] (1+0/1) Accurately ripped
08 [8e1e0770|7d48b127] (1+0/1) Accurately ripped
09 [0ceb0394|a2b94b33] (1+0/1) Accurately ripped
10 [6e95b2be|bea4bf74] (1+0/1) Accurately ripped
11 [1687b05f|1b08f4c1] (1+0/1) Accurately ripped
12 [0c6990d5|08bfb3a7] (1+0/1) Accurately ripped
13 [d81298f8|fc84ab2e] (1+0/1) Accurately ripped
14 [32893e9f|651d5ac3] (1+0/1) Accurately ripped
15 [81707a91|c0ce8c99] (1+0/1) Accurately ripped
16 [1a56b451|9c251dc0] (1+0/1) Accurately ripped
17 [a1f88873|7ffbce91] (1+0/1) Accurately ripped
18 [fbc9efa6|777c3507] (1+0/1) Accurately ripped
19 [3dc28184|ad188e41] (1+0/1) Accurately ripped
20 [d5b59c97|fd511537] (1+0/1) Accurately ripped
21 [d52008a8|be1578b9] (1+0/1) Accurately ripped

Track Peak [ CRC32 ] [W/O NULL] [ LOG ]
-- 100,0 [9D3C75B8] [1ADAB3C8]
01 99,7 [A6DC46CF] [945CA871] CRC32
02 99,9 [089E493F] [6CB737A7] CRC32
03 99,7 [A411A6EC] [66560DF5] CRC32
04 100,0 [140D5F2D] [1C1B6C1D] CRC32
05 99,9 [1A807CB0] [45A64028] CRC32
06 99,9 [084479F7] [342E2403] CRC32
07 100,0 [8CF25DF3] [C8CA6CAD] CRC32
08 99,7 [EAEE9C38] [7D62BEB1] CRC32
09 99,7 [20DE9BCD] 0F74A06 CRC32
10 99,7 [FA8E9C06] [465E9946] CRC32
11 99,4 [6C491836] [4D878956] CRC32
12 99,9 9E261D0 [02B87083] CRC32
13 99,6 [F0A4416A] [2411FAA7] CRC32
14 99,3 [FEC4AB34] [1A4C19D1] CRC32
15 99,8 [3124901A] 5F4E1D6 CRC32
16 99,5 [81C2075B] [95619D97] CRC32
17 99,9 [59247489] [65DC461D] CRC32
18 99,5 [C531189E] [5C5AA115] CRC32
19 99,1 [24F0009F] [9D39109E] CRC32
20 98,7 [8DE81BBD] [398D7952] CRC32
21 99,6 [976C2911] [11FF9B5D] CRC32

Thx to Smal_AV
DOWNLOAD LINKS:
Buy Premium To Support Me & Get Resumable Support & Max Speed


Links are Interchangeable - No Password - Single Extraction

Direct Download

Tags: Walker, Goodbye

T-Bone Walker - Goodbye Blues (2005) Download via Hotfile Rapidshare Fileserve Megaupload & FileSonic, T-Bone Walker - Goodbye Blues (2005) free torrent downloads included crack, serial, keygen.


Attention!Information

Members of Guest cannot leave comments.