John Coltrane - Live In Seattle (1966) [2CD Set] {Impulse!}

Download Now


John Coltrane - Live In Seattle (1966) [2CD Set] {Impulse!}
John Coltrane - Live In Seattle (1966) [2CD Set] {Impulse!}
EAC rip (secure mode) | FLAC (tracks)+CUE+LOG -> 881 Mb | MP3 @320 -> 317 Mb
Full Artwork @ 300 dpi (jpg) -> 15 Mb | 5% repair rar
© 1994 Impulse! / GRP / MCA | GRP 21462
Jazz / Avant-Garde Jazz / Free Jazz / Hard Bop / Saxophone

"This double CD features John Coltrane at a concert in Sept. 1965 with his expanded sextet (which included pianist McCoy Tyner, bassist Jimmy Garrison, drummer Elvin Jones, Pharoah Sanders on tenor and Donald Garrett doubling on bass clarinet and bass). Coltrane experts know that 1965 was the year that his music became quite atonal and, with the addition of Sanders, often very violent. This music, therefore, is not for fans of Coltrane's earlier sheets of sound period or for those who prefer jazz as melodic background music."

John Coltrane - Live In Seattle (1966) [2CD Set] {Impulse!}


Personnel:
John Coltrane - tenor saxophone/soprano saxophone
Pharoah Sanders - tenor saxophone
McCoy Tyner - piano
Jimmy Garrison - double bass
Donald Garrett - bass clarinet/double bass
Elvin Jones - drums

tracklist:
CD1

01 - Cosmos
02 - Out of this World
03 - Body and Soul
04 - Tapestry in Sound

CD2
01 - Evolution
02 - Afro Blue

Exact Audio Copy V0.99 prebeta 5 from 4. May 2009

EAC extraction logfile from 9. October 2009, 17:37

John Coltrane / Live in Seattle

Used drive : TEAC CD-W512SB Adapter: 2 ID: 3

Read mode : Secure
Utilize accurate stream : Yes
Defeat audio cache : Yes
Make use of C2 pointers : No

Read offset correction

: 685
Overread into Lead-In and Lead-Out : No
Fill up missing offset samples with silence : Yes
Delete leading and trailing silent blocks : No
Null samples used in CRC calculations : Yes
Used interface
: Installed external ASPI interface
Gap handling
: Appended to previous track

Used output format : User Defined Encoder
Selected bitrate : 128 kBit/s
Quality : High
Add ID3 tag : No
Command line compressor : C:\Program Files\Exact Audio Copy\flac.exe
Additional command line options : -8 -T "artist=%a" -T "title=%t" -T "album=%g" -T "date=%y" -T "tracknumber=%n" -T "genre=%m" %s

TOC of the extracted CD Track | Start | Length | Start sector | End sector
1 | 0:00.32 | 10:50.70 | 32 | 48851 2 | 10:51.27 | 23:39.70 | 48852 | 155346 3 | 34:31.22 | 21:24.18 | 155347 | 251664 4 | 55:55.40 | 6:06.65 | 251665 | 279179

Track 1 Filename D:\W\01 - Cosmos.wav Pre-gap length 0:00:02.42 Peak level 79.7 %
Track quality 100.0 %
Test CRC B6BE709A
Copy CRC B6BE709A
Cannot be verified as accurate (confidence 4) [7CD4D293], AccurateRip returned [4D4CCB02]
Copy OK

Track 2 Filename D:\W\02 - Out of this World.wav Pre-gap length 0:00:01.60 Peak level 85.0 %
Track quality 100.0 %
Test CRC 2983258D
Copy CRC 2983258D
Cannot be verified as accurate (confidence 4) [18F34FE8], AccurateRip returned [F5C5BD7C]
Copy OK

Track 3 Filename D:\W\03 - Body and Soul.wav Pre-gap length 0:00:00.96 Peak level 99.9 %
Track quality 100.0 %
Test CRC BA6548A4
Copy CRC BA6548A4
Cannot be verified as accurate (confidence 4) [CB3E6C0F], AccurateRip returned [460CB3B4]
Copy OK

Track 4 Filename D:\W\04 - Tapestry in Sound.wav Pre-gap length 0:00:02.37 Peak level 41.5 %
Track quality 100.0 %
Test CRC 7A64E11D
Copy CRC 7A64E11D
Cannot be verified as accurate (confidence 4) [27F49621], AccurateRip returned [A1EE5D49]
Copy OK

No tracks could be verified as accurate
You may have a different pressing from the one(s) in the database

No errors occurred

End of status report

Exact Audio Copy V0.99 prebeta 5 from 4. May 2009

EAC extraction logfile from 9. October 2009, 18:05

John Coltrane / Live in Seattle (Disc 2)

Used drive : TEAC CD-W512SB Adapter: 2 ID: 3

Read mode : Secure
Utilize accurate stream : Yes
Defeat audio cache : Yes
Make use of C2 pointers : No

Read offset correction

: 685
Overread into Lead-In and Lead-Out : No
Fill up missing offset samples with silence : Yes
Delete leading and trailing silent blocks : No
Null samples used in CRC calculations : Yes
Used interface
: Installed external ASPI interface
Gap handling
: Appended to previous track

Used output format : User Defined Encoder
Selected bitrate : 128 kBit/s
Quality : High
Add ID3 tag : No
Command line compressor : C:\Program Files\Exact Audio Copy\flac.exe
Additional command line options : -8 -T "artist=%a" -T "title=%t" -T "album=%g" -T "date=%y" -T "tracknumber=%n" -T "genre=%m" %s

TOC of the extracted CD Track | Start | Length | Start sector | End sector
1 | 0:00.45 | 36:00.05 | 45 | 162049 2 | 36:00.50 | 34:43.05 | 162050 | 318279

Track 1 Filename D:\W\01 - Evolution.wav Pre-gap length 0:00:02.60 Peak level 99.9 %
Track quality 99.9 %
Test CRC D9264096
Copy CRC D9264096
Accurately ripped (confidence 5) [4ADBAEAA]
Copy OK

Track 2 Filename D:\W\02 - Afro Blue.wav Pre-gap length 0:00:02.00 Peak level 100.0 %
Track quality 99.9 %
Test CRC 20CC5675
Copy CRC 20CC5675
Accurately ripped (confidence 4) [C2DF3925]
Copy OK

All tracks accurately ripped

No errors occurred

End of status report

John Coltrane - Live In Seattle (1966) [2CD Set] {Impulse!}

John Coltrane - Live In Seattle (1966) [2CD Set] {Impulse!}





Download Links:
(Premium Recommended)


All above links are interchangable. No password

Direct Download

Tags: Coltrane, Seattle, Impulse

John Coltrane - Live In Seattle (1966) [2CD Set] {Impulse!} Download via Hotfile Rapidshare Fileserve Megaupload & FileSonic, John Coltrane - Live In Seattle (1966) [2CD Set] {Impulse!} free torrent downloads included crack, serial, keygen.


Attention!Information

Members of Guest cannot leave comments.