Steve Miller Band - The Very Best Of The Steve Miller Band (1991)

Download Now

Steve Miller Band - The Very Best Of The Steve Miller Band (1991)

Steve Miller Band - The Very Best Of The Steve Miller Band (1991)
EAC Rip | FLAC (Img) + Cue + Log ~ 422 Mb | MP3 CBR320 ~ 183 Mb
Scans Included (JPG, 600 dpi) | RAR 5% Recovery
Pop/Classic/Blues/Psychedelic Rock | Arcade Music #01 6250 61

"The Steve Miller Band is an American rock band formed in 1966 in San Francisco, California. The band is managed by Steve Miller on guitar and lead vocals, and is best known today for a string of (mainly) mid-1970s hit singles that are staples of classic rock radio, as well as several earlier acid rock albums. Steve Miller left his first band to move to San Francisco and form the Steve Miller Blues Band. Shortly after Harvey Kornspan negotiated the band's landmark contract with Capitol Records in 1967, the band shortened its name to 'Steve Miller Band'. In February 1968, the band recorded its debut album Children of the Future. They went on to produce albums Sailor, Brave New World, Your Saving Grace, Number 5, Rock Love and more. The Steve Miller Band's Greatest Hits 1974-1978, released in 1978, sold over 13 million copies. They continued to produce more albums and in 2014, Steve Miller Band is touring with the rock band Journey."

Official Website | Wiki | Discogs | All Music
***************

Steve Miller Band - The Very Best Of The Steve Miller Band (1991)

Track List:

01. Space Intro [01:15]
02. Fly Like An Eagle [04:46]
03. The Joker [04:25]
04. Abracadabra [03:39]
05. Give It Up [03:35]
06. Rock N' Me [03:06]
07. Macho City [03:23]
08. Serenade From The Stars [03:13]
09. Threshold [01:07]
10. Jet Airliner [03:35]
11. Keeps Me Wondering Why [03:39]
12. Jungle Love [03:09]
13. Take The Money And Run [02:50]
14. True Fine Love [02:37]
15. Wild Mountain Honey [04:51]
16. Winter Time [03:12]
17. The Stake [03:57]
18. Swingtown [03:27]
19. The Window [04:18]

Exact Audio Copy V1.0 beta 6 from 9. April 2015

EAC extraction logfile from 20. May 2015, 18:24

Steve Miller Band / The Very Best Of The Steve Miller Band

Used drive : HL-DT-STDVDRAM GH22NS40 Adapter: 1 ID: 0

Read mode : Secure
Utilize accurate stream : Yes
Defeat audio cache : Yes
Make use of C2 pointers : No

Read offset correction

: 667
Overread into Lead-In and Lead-Out : No
Fill up missing offset samples with silence : Yes
Delete leading and trailing silent blocks : No
Null samples used in CRC calculations : Yes
Used interface
: Native Win32 interface for Win NT & 2000

Used output format : User Defined Encoder
Selected bitrate : 1024 kBit/s
Quality : High
Add ID3 tag : Yes
Command line compressor : C:\Program Files\Exact Audio Copy\Flac\flac.exe
Additional command line options : -V -8 -T "Date=%year%" -T "Genre=%genre%" %source%

TOC of the extracted CD Track | Start | Length | Start sector | End sector
1 | 0:00.33 | 1:14.32 | 33 | 5614 2 | 1:14.65 | 4:45.13 | 5615 | 27002 3 | 6:00.03 | 4:25.00 | 27003 | 46877 4 | 10:25.03 | 3:38.62 | 46878 | 63289 5 | 14:03.65 | 3:35.00 | 63290 | 79414 6 | 17:38.65 | 3:05.38 | 79415 | 93327 7 | 20:44.28 | 3:22.45 | 93328 | 108522 8 | 24:06.73 | 3:12.20 | 108523 | 122942 9 | 27:19.18 | 1:06.12 | 122943 | 127904
10 | 28:25.30 | 3:34.25 | 127905 | 143979
11 | 31:59.55 | 3:38.58 | 143980 | 160387
12 | 35:38.38 | 3:08.27 | 160388 | 174514
13 | 38:46.65 | 2:49.08 | 174515 | 187197
14 | 41:35.73 | 2:36.35 | 187198 | 198932
15 | 44:12.33 | 4:50.70 | 198933 | 220752
16 | 49:03.28 | 3:11.30 | 220753 | 235107
17 | 52:14.58 | 3:56.65 | 235108 | 252872
18 | 56:11.48 | 3:26.42 | 252873 | 268364
19 | 59:38.15 | 4:17.43 | 268365 | 287682

Range status and errors

Selected range Filename I:\Rips\Steve Miller Band - The Very Best Of The Steve Miller Band.wav Peak level 100.0 %
Extraction speed 1.9 X
Range quality 100.0 %
Test CRC 28493FE2
Copy CRC 28493FE2
Copy OK

No errors occurred


AccurateRip summary

Track 1 accurately ripped (confidence 36) [E0A5A4F2] (AR v2)
Track 2 accurately ripped (confidence 36) [1D6A6B8B] (AR v2)
Track 3 accurately ripped (confidence 35) 9BEB41C (AR v2)
Track 4 accurately ripped (confidence 36) [C27E6EAE] (AR v2)
Track 5 accurately ripped (confidence 36) C14A77B (AR v2)
Track 6 accurately ripped (confidence 36) [F3178AFC] (AR v2)
Track 7 accurately ripped (confidence 37) [3583A131] (AR v2)
Track 8 accurately ripped (confidence 37) [C23852EC] (AR v2)
Track 9 accurately ripped (confidence 37) [3E7545BA] (AR v2)
Track 10 accurately ripped (confidence 37) [3ECCC842] (AR v2)
Track 11 accurately ripped (confidence 36) [3B870F63] (AR v2)
Track 12 accurately ripped (confidence 36) 021D242 (AR v2)
Track 13 accurately ripped (confidence 36) [418D15B5] (AR v2)
Track 14 accurately ripped (confidence 35) [427BCE8E] (AR v2)
Track 15 accurately ripped (confidence 34) [89FCC10C] (AR v2)
Track 16 accurately ripped (confidence 34) [A8225A8C] (AR v2)
Track 17 accurately ripped (confidence 34) [90AE12EC] (AR v2)
Track 18 accurately ripped (confidence 36) [9505016C] (AR v2)
Track 19 accurately ripped (confidence 36) [692C0211] (AR v2)

All tracks accurately ripped

End of status report

---- CUETools DB Plugin V2.1.6

[CTDB TOCID: zSeMfjRZMY7PVyLvmeFPjQ7k16s-] found
Submit result:
Track | CTDB Status
1 | (20/20) Accurately ripped
2 | (10/20) Accurately ripped
3 | (10/20) Accurately ripped
4 | (20/20) Accurately ripped
5 | (20/20) Accurately ripped
6 | (20/20) Accurately ripped
7 | (20/20) Accurately ripped
8 | (20/20) Accurately ripped
9 | (20/20) Accurately ripped
10 | (10/20) Accurately ripped
11 | (10/20) Accurately ripped
12 | (20/20) Accurately ripped
13 | (10/20) Accurately ripped
14 | (10/20) Accurately ripped
15 | (20/20) Accurately ripped
16 | (20/20) Accurately ripped
17 | (19/20) Accurately ripped, or (1/20) differs in 4 samples @00:51:61
18 | (20/20) Accurately ripped
19 | (20/20) Accurately ripped

==== Log checksum 8A35B529041BBB0FCEC775BE75335618AFD06A90DD6EBD39A8474248A7AAACEB ====

foobar2000 1.2.6 / Dynamic Range Meter 1.1.1
log date: 2015-06-10 14:36:15

------
Analyzed: Steve Miller Band / The Very Best Of The Steve Miller Band
------

DR Peak RMS Duration Track
------
DR7 -7.93 dB -18.24 dB 1:14 01-Space Intro
DR13 -1.83 dB -17.04 dB 4:45 02-Fly Like An Eagle
DR13 -0.83 dB -17.44 dB 4:25 03-The Joker
DR14 -0.81 dB -17.55 dB 3:39 04-Abracadabra
DR12 -1.85 dB -16.44 dB 3:35 05-Give It Up
DR13 -1.41 dB -16.49 dB 3:06 06-Rock N' Me
DR13 -0.29 dB -16.45 dB 3:23 07-Macho City
DR13 -2.14 dB -17.16 dB 3:12 08-Serenade From The Stars
DR10 -4.91 dB -18.90 dB 1:06 09-Threshold
DR12 -1.49 dB -15.37 dB 3:34 10-Jet Airliner
DR13 0.00 dB -14.69 dB 3:39 11-Keeps Me Wondering Why
DR12 -2.85 dB -16.17 dB 3:08 12-Jungle Love
DR13 -1.79 dB -17.41 dB 2:49 13-Take The Money And Run
DR12 -1.62 dB -16.09 dB 2:36 14-True Fine Love
DR12 -3.09 dB -17.12 dB 4:51 15-Wild Mountain Honey
DR11 -3.02 dB -17.78 dB 3:11 16-Winter Time
DR11 -1.60 dB -15.16 dB 3:57 17-The Stake
DR12 -1.28 dB -16.32 dB 3:27 18-Swingtown
DR12 -1.45 dB -16.61 dB 4:18 19-The Window
------

Number of tracks: 19
Official DR value: DR12

Samplerate: 44100 Hz
Channels: 2
Bits per sample: 16
Bitrate: 817 kbps
Codec: FLAC

[CUETools log; Date: 10.06.2015 14:07:55; Version: 2.1.5]
Pregap length 00:00:33.
[CTDB TOCID: zSeMfjRZMY7PVyLvmeFPjQ7k16s-] found.
Track | CTDB Status
1 | (25/25) Accurately ripped
2 | (10/25) Accurately ripped
3 | (10/25) Accurately ripped
4 | (25/25) Accurately ripped
5 | (25/25) Accurately ripped
6 | (25/25) Accurately ripped
7 | (25/25) Accurately ripped
8 | (25/25) Accurately ripped
9 | (25/25) Accurately ripped
10 | (10/25) Accurately ripped
11 | (10/25) Accurately ripped
12 | (25/25) Accurately ripped
13 | (10/25) Accurately ripped
14 | (10/25) Accurately ripped
15 | (25/25) Accurately ripped
16 | (25/25) Accurately ripped
17 | (24/25) Accurately ripped, or (1/25) differs in 4 samples @00:51:61
18 | (25/25) Accurately ripped
19 | (25/25) Accurately ripped
[AccurateRip ID: 002acbf9-02579770-060efb13] found.
Track [ CRC | V2 ] Status
01 [a97f45a7|e0a5a4f2] (040+036/138) Accurately ripped
02 [e1ea94b4|1d6a6b8b] (041+036/140) Accurately ripped
03 [0e62620e|b9beb41c] (042+035/139) Accurately ripped
04 a23f763|c27e6eae (042+036/139) Accurately ripped
05 [08a5c552|bc14a77b] (040+036/138) Accurately ripped
06 [54f84c3c|f3178afc] (041+036/139) Accurately ripped
07 [c10cd601|3583a131] (041+037/140) Accurately ripped
08 [095388e6|c23852ec] (039+037/138) Accurately ripped
09 [6f2516ca|3e7545ba] (041+037/140) Accurately ripped
10 [832bfaf3|3eccc842] (042+037/141) Accurately ripped
11 [9b07b8fd|3b870f63] (042+036/140) Accurately ripped
12 [34bf9a2e|b021d242] (040+036/137) Accurately ripped
13 [3d28b868|418d15b5] (039+036/138) Accurately ripped
14 [1f760c46|427bce8e] (040+035/138) Accurately ripped
15 [cbf74126|89fcc10c] (041+034/137) Accurately ripped
16 [4d6d8568|a8225a8c] (041+034/135) Accurately ripped
17 [df4b3e76|90ae12ec] (040+034/135) Accurately ripped
18 [08906fef|9505016c] (039+036/136) Accurately ripped
19 [97b21d30|692c0211] (038+036/134) Accurately ripped
Offsetted by 74:
01 [a7c17ec9] (033/138) Accurately ripped
02 [a4f05062] (000/140) No match (V2 was not tested)
03 [544b4f72] (000/139) No match (V2 was not tested)
04 [15324cab] (033/139) Accurately ripped
05 [6f40c27a] (033/138) Accurately ripped
06 [29d80b00] (033/139) Accurately ripped
07 [9b46e285] (033/140) Accurately ripped
08 [99874000] (033/138) Accurately ripped
09 [c6b276b0] (033/140) Accurately ripped
10 [c7474797] (000/141) No match (V2 was not tested)
11 [fa639f03] (000/140) No match (V2 was not tested)
12 [2873f4fa] (033/137) Accurately ripped
13 7bf802c (000/138) No match (V2 was not tested)
14 [695a8c24] (000/138) No match (V2 was not tested)
15 [f751b56a] (032/137) Accurately ripped
16 [84d260c0] (031/135) Accurately ripped
17 [910e4bba] (031/135) Accurately ripped
18 [8795af25] (031/136) Accurately ripped
19 [18a4533e] (031/134) Accurately ripped

Track Peak [ CRC32 ] [W/O NULL] [ LOG ]
-- 100,0 [28493FE2] [4AE466A6] CRC32
01 40,1 [92F1B69B] [88E2AB86]
02 80,9 [1C6798C6] [4803CB1C]
03 90,8 [1D3D5F94] [6AB5515E]
04 91,1 6D86E34 8D9691E
05 80,7 [62FBFFBB] [C81CF06E]
06 84,9 [88A28D69] [8A11136B]
07 96,7 [EE56FA84] [3EBFDCBD]
08 78,1 [69C69F98] [C3736C61]
09 56,8 [0D4F27E5] [FBA0BB54]
10 84,2 2F2F2A1 [48A1C48C]
11 100,0 [4AA043C9] [4FADC5E2]
12 72,0 [5A61E890] [E081AD6A]
13 81,3 [83E9F7F0] [E23D59E4]
14 82,9 [7DD864E1] [585980D6]
15 70,0 [48D813DD] [52E6D503]
16 70,6 [9050C41D] [A5DCE828]
17 83,1 [9452BF2C] [3C469CED]
18 86,2 [65736F8F] [F67F0F9C]
19 84,6 [4E5520F9] [DAE75672]

Steve Miller Band - The Very Best Of The Steve Miller Band (1991)


DOWNLOAD
(Premium Recommended)


All above links are interchangable. No password

Direct Download

Tags: Miller, Miller

Steve Miller Band - The Very Best Of The Steve Miller Band (1991) Download via Hotfile Rapidshare Fileserve Megaupload & FileSonic, Steve Miller Band - The Very Best Of The Steve Miller Band (1991) free torrent downloads included crack, serial, keygen.


Attention!Information

Members of Guest cannot leave comments.