Rod Stewart - The Best Of Rod Stewart: The Millennium Collection (1999) Re-uploaD

Download Now

Rod Stewart - The Best Of Rod Stewart: The Millennium Collection (1999) Re-uploaD

Rod Stewart - The Best Of Rod Stewart: The Millennium Collection (1999)
EAC Rip | FLAC+CUE+LOG - 373 MB | 56:25 mins | Scans | MP3 CBR 320 Kbps - 126 MB
Classic Rock / Pop Rock | Label: Mercury Records / Ukranian Records | Cat. # 546331-2

With his career in its fifth decade, Stewart has sold over 100 million records worldwide, making him one of the best selling artists of all time. In 2008, Billboard magazine ranked him the 17th most successful artist on the "The Billboard Hot 100 Top All-Time Artists". He was voted at #33 in Q Magazine's list of the top 100 Greatest Singers of all time, and #59 on Rolling Stone 100 Greatest Singers of all time. As a solo artist, Stewart was inducted into the Rock and Roll Hall of Fame in 1994, and will be inducted a second time, as a member of Faces, in April 2012.
"Rod Stewart's volume of 20th Century Masters is heavy on hits, and the songs that aren't hits are staples of Stewart's classic early-'70s repertoire. It is true that not every great song Rod recorded during this time is here -- he recorded so much great music in the first half of the '70s that it couldn't be condensed to 12 songs -- but it does contain a terrific selection of his very best, including "Maggie May," "You Wear It Well," "Every Picture Tells a Story," "Gasoline Alley," and "Angel," which makes this a first-class sampler.

-- Stephen Thomas Erlewine, allmusic.com"


Tracklist:

01. Maggie May
02. You Wear It Well
03. (I Know) I'm Losing You
04. Country Comforts
05. Every Picture Tells A Story
06. Angel
07. Gasoline Alley
08. It's All Over Now
09. Find A Reason To Believe
10. True Blue
11. Twistin' The Night Away
12. Handbags And Gladrags

Compilation Produced by Bill Levinson.
Digitally Remastered by Suha Gur at UMG Studios.

Exact Audio Copy V0.99 prebeta 5 from 4. May 2009

Отчёт EAC об извлечении, выполненном 21. марта 2012, 23:06

Rod Stewart / 20th Century Masters. The Best Of Rod Stewart. The Millennium Collection

Дисковод: HL-DT-STDVDRAM GH22NS50 Adapter: 2 ID: 0

Режим чтения : Достоверность
Использование точного потока : Да
Отключение кэша аудио : Да
Использование указателей C2 : Нет

Коррекция смещения при чтении : 667
Способность читать области Lead-in и Lead-out : Нет
Заполнение пропущенных сэмплов тишиной : Да
Удаление блоков с тишиной в начале и конце : Нет
При вычислениях CRC использовались нулевые сэмплы : Да
Интерфейс : Встроенный Win32-интерфейс для Win NT/2000

Выходной формат : Внутренние WAV-операции
Формат сэмплов : 44.100 Гц; 16 бит; стерео

TOC извлечённого CD Трек | Старт | Длительность | Начальный сектор | Конечный сектор

1 | 0:00.00 | 5:48.42 | 0 | 26141
2 | 5:48.42 | 4:25.35 | 26142 | 46051
3 | 10:14.02 | 5:23.48 | 46052 | 70324
4 | 15:37.50 | 4:46.00 | 70325 | 91774
5 | 20:23.50 | 5:59.65 | 91775 | 118764
6 | 26:23.40 | 4:06.42 | 118765 | 137256
7 | 30:30.07 | 4:04.40 | 137257 | 155596
8 | 34:34.47 | 6:24.60 | 155597 | 184456
9 | 40:59.32 | 4:11.00 | 184457 | 203281
10 | 45:10.32 | 3:33.38 | 203282 | 219294
11 | 48:43.70 | 3:16.12 | 219295 | 234006
12 | 52:00.07 | 4:24.48 | 234007 | 253854

Характеристики диапазона извлечения и сообщения об ошибках

Выбранный диапазон Имя файла C:\Users\Дашенька\Desktop\1999 - Rod Stewart - 20th Century Masters. The Best Of Rod Stewart. The Millennium Collection\1999 - Rod Stewart - 20th Century Masters. The Best Of Rod Stewart. The Millennium Collection.wav Пиковый уровень 100.0 %
Качество диапазона 99.9 %
CRC копии 1450083F
Копирование... OK

Ошибок не произошло


AccurateRip: сводка

Трек 1 точность не определена (достоверность 22) [DA1D544D], AccurateRip вернул [7FFBA8C5]
Трек 2 точность не определена (достоверность 23) [96D66554], AccurateRip вернул [78025074]
Трек 3 точность не определена (достоверность 23) [7CA7B150], AccurateRip вернул [537A1AA8]
Трек 4 точность не определена (достоверность 21) [3D60EBC3], AccurateRip вернул [CD7DFB03]
Трек 5 точность не определена (достоверность 23) [56CF4A1E], AccurateRip вернул [CFBA030E]
Трек 6 точность не определена (достоверность 22) [A9599FDE], AccurateRip вернул [4C7D7306]
Трек 7 точность не определена (достоверность 21) [F5A6DC4F], AccurateRip вернул [3F8B4197]
Трек 8 точность не определена (достоверность 21) [33AB0F57], AccurateRip вернул [C6216037]
Трек 9 точность не определена (достоверность 23) [9CE724CB], AccurateRip вернул [DC922C23]
Трек 10 точность не определена (достоверность 21) [5872B33F], AccurateRip вернул [C54D836F]
Трек 11 точность не определена (достоверность 22) [41B1F0D3], AccurateRip вернул [A16AA2E3]
Трек 12 точность не определена (достоверность 22) [A2240C07], AccurateRip вернул [6E796CC4]

Ни один трек не прошёл проверки на точность
В вашей базе может быть иной вариант штамповки диска

Конец отчёта

-
[AccurateRip ID: 001a9009-00f516ce-990d380c] found.
Track [ CRC ] Status
01 [da1d544d] (00/47) No match
02 [96d66554] (00/49) No match
03 [7ca7b150] (00/49) No match
04 [3d60ebc3] (00/47) No match
05 [56cf4a1e] (00/49) No match
06 [a9599fde] (00/46) No match
07 [f5a6dc4f] (00/47) No match
08 [33ab0f57] (00/47) No match
09 [9ce724cb] (00/48) No match
10 [5872b33f] (00/46) No match
11 [41b1f0d3] (00/46) No match
12 [a2240c07] (00/47) No match
Offsetted by 664:
01 [7ffba8c5] (22/47) Accurately ripped
02 [78025074] (23/49) Accurately ripped
03 [537a1aa8] (23/49) Accurately ripped
04 [cd7dfb03] (21/47) Accurately ripped
05 [cfba030e] (23/49) Accurately ripped
06 [4c7d7306] (22/46) Accurately ripped
07 [3f8b4197] (21/47) Accurately ripped
08 [c6216037] (21/47) Accurately ripped
09 [dc922c23] (23/48) Accurately ripped
10 [c54d836f] (21/46) Accurately ripped
11 [a16aa2e3] (22/46) Accurately ripped
12 [6e796cc4] (22/47) Accurately ripped

Track Peak [ CRC32 ] [W/O NULL] [ LOG ]
-- 99,9 [1450083F] [69D18CE7] CRC32
01 84,8 [8200C243] [F12EBEFF]
02 76,2 [2DC53FA2] [CBCA5089]
03 93,1 [980B7202] 4CE3EF9
04 88,9 [34139FEA] [153DF1AD]
05 95,4 [3B419C6F] [96734B0D]
06 79,8 [E5BEDE0E] [E177EB00]
07 99,9 [CA14FEFD] [80A026FE]
08 99,9 [648218BD] [36E0FFE0]
09 99,9 [AFA25C60] [12BB95FB]
10 85,8 489711A [9F9E3CDB]
11 89,0 [A2E6CF3B] [7C6B164A]
12 85,6 [7149A945] [DFB5190C]

AUDIOCHECKER v2.0 beta (build 457) - by Dester - [email protected]
~~~~~~~~~~~~~~~~~~~~~~~~~~~~~~~~~~
...
1 -=- 1999 - Rod Stewart - 20th Century Masters. The Best Of Rod Stewart. The Millennium Collection.wav -=- CDDA (100%)

27606100
Download Links:
(Premium Recommended)


All above links are interchangable. No password

Direct Download

Tags: Stewart, Stewart, Millennium, Collection, uploaD

Rod Stewart - The Best Of Rod Stewart: The Millennium Collection (1999) Re-uploaD Download via Hotfile Rapidshare Fileserve Megaupload & FileSonic, Rod Stewart - The Best Of Rod Stewart: The Millennium Collection (1999) Re-uploaD free torrent downloads included crack, serial, keygen.


Attention!Information

Members of Guest cannot leave comments.