Jan Akkerman - Live (1978)

Download Now

Jan Akkerman - Live (1978)

Jan Akkerman - Live (1978)
Jazz-Rock | 1cd | EAC Rip | Ape + Cue + Log | covers
Wea/Pseudonym, CDP 1034 DD | rem: 1996 | 255Mb

This Jan Akkerman record is a real gem! After firs spin I was convinced this by far his best live album. The material comes mainly from his self-titled record (1977), though Tommy (of the Eruption suite) of Focus is added and two new compositions in the spirit of the self-titled Jan Akkerman album. The recording of this live album is perfect, nothing more can be expected, not even today. For newcomers. Jan Akkerman is ex-guitarist of Dutch prog band Focus.
In his solo career he concentrated on jazz-rock/fusion and some historical lute-guitar playing. Though at first (Profile, Tabernakel) Jan akkerman would use his rockin' electric guitars most of the time, in 1977 Jan decided to become the master of the clean jazz-guitar. This resulted in the 1977 self-titled album with clean guitars, a great band and the best of string arrangements. The compositions had a relaxing but slightly magical vibe and some up-tempo moments. Most of the compositions of this record were played on this live album.
Now, the problem Akkerman and band had to face was the fact that on the album these unbelievable string arrangements made a big contribution to the end result, but they weren't able to get such an arrangement for their tour. The problem was successfully solved by adding an inspired percussionist (I love his contribution) and some synths that both helped to establish a more progressive climate, though the main genre would still be fusion. The two minuted atmospheric synth opening track by Jasper Van 't Hoff really gets me warm for the rest of the album!
A nice track from the Focus era, Tommy, is played with precision but the great vocals of Thijs van Leer are a loss. Still the band makes a great symphonic jazz track with that magical feel and the great guitar solo's (this time clean) of Jan Akkerman.
Conclusion. This recording is perfect, the tracks are great, there's a magical progressive climate on this concert, all instruments are played perfect, some problems concerning the arrangements were solved very intelligent and Jan Akkerman plays plain beautiful. There's only one letdown: the album is short. Running for 35 minutes this doesn't live up to the standards of these days. Still this album is highly recommended to basically every-one who can hear the difference between elevator music and great Fusion. ~Progarchives

Track listing
01. Transitory (2:07)
02. Skydancer (8:35)
03. Pavane (7:15)
04. Crackers (6:50)
05. Tommy (3:36)
06. Azimuth (6:09)
~ (34:32)

Personnel
- Jan Akkerman / guitars
- Jasper Van 't Hoff / keyboards
- Cees Van Der Laarse / bass
- Bruno Castelucci / drums
- Tom Barlage / saxes & keyboards
- Willem Ennes / keyboards
- Nippie Noya / percussion

Отчёт EAC об извлечении, выполненном 23. октября 2008, 1:28 для диска:
Jan Akkerman / Live

Дисковод: Optiarc DVD RW AD-7200S Adapter: 0 ID: 1
Режим чтения: Достоверный (C2: нет, Точный поток: да, Отключение кэша: да)
Коррекция смещения при чтении: 48
Способность читать области Lead-in и Lead-out : Нет

Выходной формат: Внутренние WAV-операции 44.100 Гц; 16 бит; стерео Смещение при сжатии: 48

Другие параметры:
Заполнение пропущенных сэмплов тишиной : Да
Удаление блоков с тишиной в начале и конце : Нет
Установленный внешний ASPI-интерфейс

Характеристики диапазона извлечения и сообщения об ошибках
Выбранный диапазон
Имя файла M:\LossLess\свои раздачи\Jan Akkerman - Live\Jan Akkerman - Live.wav Пиковый уровень 99.2 %
Качество диапазона 100.0 %
CRC A8BD973F
Копирование... OK

Ошибок не произошло

Конец отчёта

[CUETools log; Date: 2015.06.09. 11:23:44; Version: 2.1.5]
Pregap length 00:00:32.
[CTDB TOCID: zcwJ6L1S08V5HRwI12jKupwCU0M-] found.
Track | CTDB Status
1 | (2/2) Accurately ripped
2 | (2/2) Accurately ripped
3 | (2/2) Accurately ripped
4 | (2/2) Accurately ripped
5 | (2/2) Accurately ripped
6 | (2/2) Accurately ripped
[AccurateRip ID: 00082285-002c3a0d-4d081806] found.
Track [ CRC | V2 ] Status
01 [1f2bd461|f84faf3e] (2+0/2) Accurately ripped
02 810e1d1|4380d892 (2+0/2) Accurately ripped
03 [59796f46|083e16c3] (2+0/2) Accurately ripped
04 [201966b4|a3715389] (2+0/2) Accurately ripped
05 [c9a6723b|5676f31c] (2+0/2) Accurately ripped
06 [fcecc2e9|03313642] (2+0/2) Accurately ripped

Track Peak [ CRC32 ] [W/O NULL]
-- 99,2 [F94BF187] [A8BD973F]
01 67,6 [5EB33731] [7E94BF13]
02 98,8 [640DFBC6] [1AD656AC]
03 92,8 [2B3AEAB5] [3FF11CB9]
04 98,0 [1FDE08D8] [0997DA9A]
05 99,2 [68F1ADFD] [A3B8C446]
06 99,2 [AD2A550A] [4D0902D0]

Thx to 30277
DOWNLOAD
(Premium Recommended)


All above links are interchangable. No password

Direct Download

Tags: Akkerman

Jan Akkerman - Live (1978) Download via Hotfile Rapidshare Fileserve Megaupload & FileSonic, Jan Akkerman - Live (1978) free torrent downloads included crack, serial, keygen.


Attention!Information

Members of Guest cannot leave comments.