Chris Spedding - Chris Spedding (1975) [2000, Repertoire Records, REP 4859]

Download Now

Chris Spedding - Chris Spedding (1975) [2000, Repertoire Records, REP 4859]

Chris Spedding - Chris Spedding (1975/2000)
EAC Rip | FLAC (Img) + Cue + Log ~ 247 Mb | MP3 CBR320 ~ 95 Mb
Scans (JPG, 600 dpi) ~ 146 Mb | RAR 5% Recovery
Classic Rock, Blues Rock, Boogie Rock | Repertoire Records #REP 4859

"Peter Robinson, more widely known by his stage name Chris Spedding, is an English musician, singer, songwriter, multi-instrumentalist, composer, and record producer. In a career spanning more than 40 years, Spedding is best known for his studio session work. By the early 1970s, he had become one of the most sought-after session guitarists in England. Spedding has played on and produced many albums, and singles. He has also been a member of eleven rock bands: The Battered Ornaments, Frank Ricotti Quartet, King Mob, Mike Batt and Friends, Necessaries, Nucleus, Ricky Norton, Sharks, The Stax Pistols, Trigger, and The Wombles. Spedding pursued a solo career and released his debut album Songs Without Words in 1970. Since then, he has released fourteen studio albums, and two live albums. "Chris Spedding" is the fifth, self-titled studio album by Chris Spedding..."

Official Website | Wiki | Discogs | All Music
***************

Chris Spedding - Chris Spedding (1975) [2000, Repertoire Records, REP 4859]

Track List:

01. New Girl In The Neighbourhood [02:32]
02. School Days [02:28]
03. Sweet Disposition [02:18]
04. Bedsit Girl [02:05]
05. Guitar Jamboree [04:21]
06. Jump In My Car [03:25]
07. Hungry Man [03:19]
08. Motor Bikin' [02:41]
09. Catch That Train [02:42]
10. Nervous [02:15]
11. Boogie City [02:39]
12. Working For The Union [02:54]
13. Running Round [02:39]
14. Truck Drivin' Man [03:14]

Exact Audio Copy V1.0 beta 6 from 9. April 2015

EAC extraction logfile from 10. June 2015, 13:06

Chris Spedding / Chris Spedding

Used drive : PLEXTOR DVDR PX-891SA Adapter: 0 ID: 2

Read mode : Secure
Utilize accurate stream : Yes
Defeat audio cache : Yes
Make use of C2 pointers : No

Read offset correction

: 6
Overread into Lead-In and Lead-Out : No
Fill up missing offset samples with silence : Yes
Delete leading and trailing silent blocks : No
Null samples used in CRC calculations : Yes
Used interface
: Installed external ASPI interface

Used output format : User Defined Encoder
Selected bitrate : 320 kBit/s
Quality : High
Add ID3 tag : No
Command line compressor : C:\Program Files\Exact Audio Copy 1.0 b6\Exact Audio Copy\Flac\flac.exe
Additional command line options : -V -8 -T "Date=%year%" -T "Genre=%genre%" %source%

TOC of the extracted CD Track | Start | Length | Start sector | End sector
1 | 0:00.00 | 2:31.30 | 0 | 11354 2 | 2:31.30 | 2:27.40 | 11355 | 22419 3 | 4:58.70 | 2:17.03 | 22420 | 32697 4 | 7:15.73 | 2:04.11 | 32698 | 42008 5 | 9:20.09 | 4:20.68 | 42009 | 61576 6 | 13:41.02 | 3:24.64 | 61577 | 76940 7 | 17:05.66 | 3:18.65 | 76941 | 91855 8 | 20:24.56 | 2:40.05 | 91856 | 103860 9 | 23:04.61 | 2:41.12 | 103861 | 115947
10 | 25:45.73 | 2:14.59 | 115948 | 126056
11 | 28:00.57 | 2:38.64 | 126057 | 137970
12 | 30:39.46 | 2:53.50 | 137971 | 150995
13 | 33:33.21 | 2:38.54 | 150996 | 162899
14 | 36:12.00 | 3:13.67 | 162900 | 177441

Range status and errors

Selected range Filename L:\Lossless Temp\Chris Spedding\1975. Chris Spedding - Chris Spedding (2000 Repertoire Records, REP 4859, E.U.)\Chris Spedding - Chris Spedding.wav Peak level 99.4 %
Extraction speed 7.6 X
Range quality 100.0 %
Test CRC C1EDBC72
Copy CRC C1EDBC72
Copy OK

No errors occurred


AccurateRip summary

Track 1 accurately ripped (confidence 4) [406B24AC] (AR v2)
Track 2 accurately ripped (confidence 4) [A18868CA] (AR v2)
Track 3 accurately ripped (confidence 4) [53E17708] (AR v2)
Track 4 accurately ripped (confidence 4) [AE214ACC] (AR v2)
Track 5 accurately ripped (confidence 4) [C6DFA113] (AR v2)
Track 6 accurately ripped (confidence 4) [F5405065] (AR v2)
Track 7 accurately ripped (confidence 4) [932C4EC7] (AR v2)
Track 8 accurately ripped (confidence 4) [618DCAA4] (AR v2)
Track 9 accurately ripped (confidence 4) [01E2B430] (AR v2)
Track 10 accurately ripped (confidence 4) [7FBF45B0] (AR v2)
Track 11 accurately ripped (confidence 4) [1F7A49F1] (AR v2)
Track 12 accurately ripped (confidence 3) DB1BFF0 (AR v2)
Track 13 accurately ripped (confidence 3) [ACB56505] (AR v2)
Track 14 accurately ripped (confidence 3) [C9010B9D] (AR v2)

All tracks accurately ripped

End of status report

==== Log checksum 15B9AD2A96D6D7B5BFC28BE561C47112369AAB66E7B802CB47899D9CD3685132 ====

foobar2000 1.2.6 / Dynamic Range Meter 1.1.1
log date: 2015-06-12 10:36:13

------
Analyzed: Chris Spedding / Chris Spedding
------

DR Peak RMS Duration Track
------
DR8 -0.05 dB -10.08 dB 2:31 01-New Girl In The Neighbourhood
DR7 -0.06 dB -9.10 dB 2:28 02-School Days
DR8 -0.08 dB -9.30 dB 2:17 03-Sweet Disposition
DR8 -0.10 dB -8.70 dB 2:04 04-Bedsit Girl
DR7 -0.08 dB -8.41 dB 4:21 05-Guitar Jamboree
DR7 -0.10 dB -8.73 dB 3:25 06-Jump In My Car
DR8 -0.05 dB -10.02 dB 3:19 07-Hungry Man
DR8 -0.05 dB -9.55 dB 2:40 08-Motor Bikin'
DR9 -0.08 dB -10.03 dB 2:41 09-Catch That Train
DR8 -0.12 dB -9.71 dB 2:15 10-Nervous
DR7 -0.10 dB -7.93 dB 2:39 11-Boogie City
DR8 -0.12 dB -9.53 dB 2:54 12-Working For The Union
DR8 -0.14 dB -9.78 dB 2:39 13-Running Round
DR8 -0.11 dB -10.72 dB 3:14 14-Truck Drivin' Man
------

Number of tracks: 14
Official DR value: DR8

Samplerate: 44100 Hz
Channels: 2
Bits per sample: 16
Bitrate: 834 kbps
Codec: FLAC

[CUETools log; Date: 12.06.2015 10:36:03; Version: 2.1.5]
[CTDB TOCID: 5RzrGQFmd_axbRJ91EmGsA6WTwg-] found.
Track | CTDB Status
1 | (3/3) Accurately ripped
2 | (3/3) Accurately ripped
3 | (3/3) Accurately ripped
4 | (3/3) Accurately ripped
5 | (3/3) Accurately ripped
6 | (3/3) Accurately ripped
7 | (3/3) Accurately ripped
8 | (3/3) Accurately ripped
9 | (3/3) Accurately ripped
10 | (3/3) Accurately ripped
11 | (3/3) Accurately ripped
12 | (3/3) Accurately ripped
13 | (3/3) Accurately ripped
14 | (3/3) Accurately ripped
[AccurateRip ID: 00140cef-00d7623f-a3093d0e] found.
Track [ CRC | V2 ] Status
01 [432d94fc|406b24ac] (4+4/8) Accurately ripped
02 [aff3251b|a18868ca] (4+4/8) Accurately ripped
03 [a4d8c56a|53e17708] (4+4/8) Accurately ripped
04 [d8b27988|ae214acc] (4+4/8) Accurately ripped
05 [fe97f919|c6dfa113] (4+4/8) Accurately ripped
06 [e77f16e9|f5405065] (4+4/8) Accurately ripped
07 [a342046d|932c4ec7] (4+4/8) Accurately ripped
08 [a4ed1ed6|618dcaa4] (4+4/8) Accurately ripped
09 [dbb8fb70|01e2b430] (4+4/8) Accurately ripped
10 [d278b903|7fbf45b0] (4+4/8) Accurately ripped
11 [9cb91d97|1f7a49f1] (4+4/8) Accurately ripped
12 [303ae143|bdb1bff0] (4+3/7) Accurately ripped
13 [6d127c0d|acb56505] (4+3/7) Accurately ripped
14 [71b55727|c9010b9d] (4+3/7) Accurately ripped

Track Peak [ CRC32 ] [W/O NULL] [ LOG ]
-- 99,4 [C1EDBC72] [4DD49CD7] CRC32
01 99,3 [8616A827] [9A1981DB]
02 99,3 [A289B485] [4CF0757F]
03 99,0 [DA5568CB] [574AC8F4]
04 98,9 [9F7A2DD8] [4C6D729C]
05 99,0 [721AE603] [956F8186]
06 98,8 [282487EC] [185FC21D]
07 99,3 [4D307564] [48633CEE]
08 99,4 [0EBB165A] [CC06CEEA]
09 99,0 [7D21443B] A80B988
10 98,6 [37EC633C] [8AD7C570]
11 98,8 [CBE89463] [97A53F95]
12 98,6 [671EDF87] [C5E7E2A8]
13 98,4 [D0F32705] [EE1F13F4]
14 98,7 [878C6C54] [27CE9963]

Chris Spedding - Chris Spedding (1975) [2000, Repertoire Records, REP 4859]


DOWNLOAD
(Premium Recommended)


All above links are interchangable. No password

Direct Download

Tags: Spedding, Spedding, Repertoire, Records

Chris Spedding - Chris Spedding (1975) [2000, Repertoire Records, REP 4859] Download via Hotfile Rapidshare Fileserve Megaupload & FileSonic, Chris Spedding - Chris Spedding (1975) [2000, Repertoire Records, REP 4859] free torrent downloads included crack, serial, keygen.


#1 | Author: iceman666 | 15 June 2015 03:12
Cool...haven't heard Guitar Jamboree in decades, and the rest of the album's gotta be fun...thanks

Attention!Information

Members of Guest cannot leave comments.