John Cale - Guts (1977)

Download Now

John Cale - Guts (1977)

John Cale - Guts (1977)
EAC | FLAC | Image (Cue&Log) ~ 278 Mb (incl 5%) | Mp3 (CBR320) ~ 114 Mb (incl 5%) | Scans included
Genre: Art Rock, Proto-Punk, Experimental Rock | Label: Island Masters | # IMCD 203 (846 065-2) | Time: 00:38:16

"Guts is a retrospective compilation album by John Cale, released by Island Records in February 1977. It is perhaps most notable for including the songs "Leaving It Up To You", which was deleted from Helen of Troy, and the previously unreleased "Mary Lou". It was compiled by Howard Thompson."

"Released in spring 1977, with John Cale back on the road and reveling in the controversy created by the chicken-beheading incident, Guts was a solid reminder of the three albums he cut for Island earlier in the decade -- and which predicted the power and promise of punk with a passion that not one of the movement's other putative godfathers had ever truly communicated. Those original albums were already out of print at the time and, for an audience raised to expect outrage and violence, that may not have been a bad thing. Fear, Slow Dazzle, and Helen of Troy, after all, each packed their fair share of ballads and beauty, a happenstance that to punkier ears was akin to expecting the Stooges to play "No Fun" and getting "We Will Fall" instead. Guts cut away all of that, and diced instead into the soul of Cale's psychosis, from the grueling "Gun" to the turbulent "Fear" -- still one of rock's most foreboding "ballads" -- and onto what remain three of Cale's most legendary performances, a seething Quaalude drive through Elvis Presley's "Heartbreak Hotel," his hypnotic realignment of Jonathan Richman's "Pablo Picasso," and, edgiest of all, "Leaving It All up to You," a storm-tossed journey through the bowels of modern life crowned (as aghast period commentators never let listeners forget) by the anti-reassurance, "We could all feel safe/Like Sharon Tate." Its excellent track selection aside (only "Dirty Ass Rock and Roll" lets the side down), Guts distinguished itself further by extracting the Slow Dazzle outtake "Mary Lou" from the archive. But even without that bonus, the album emerged a best-of that actually lived up to its billing.

Review by Dave Thompson, Allmusic.com
"




Tracklist:

1. Guts (03:26)
2. Mary Lou (02:47)
3. Helen Of Troy (04:17)
4. Pablo Picasso (03:21)
5. Leaving It Up To You (04:30)
6. Fear Is A Man's Best Friend (03:54)
7. Gun (08:05)
8. Dirtyass Rock 'n' Roll (04:42)
9. Heartbreak Hotel (03:09)


Exact Audio Copy V1.0 beta 6 from 9. April 2015

Отчёт EAC об извлечении, выполненном 11. июня 2015, 20:04

John Cale / Guts

Дисковод: SONY CD-RW CRX230ED Adapter: 1 ID: 0

Режим чтения : Достоверность
Использование точного потока : Да
Отключение кэша аудио : Да
Использование указателей C2 : Нет

Коррекция смещения при чтении : 6
Способность читать области Lead-in и Lead-out : Нет
Заполнение пропущенных сэмплов тишиной : Да
Удаление блоков с тишиной в начале и конце : Нет
При вычислениях CRC использовались нулевые сэмплы : Да
Интерфейс : Встроенный Win32-интерфейс для Win NT/2000

Выходной формат : Внутренние WAV-операции
Формат сэмплов : 44.100 Гц; 16 бит; стерео

TOC извлечённого CD Трек | Старт | Длительность | Начальный сектор | Конечный сектор

1 | 0:00.00 | 3:26.58 | 0 | 15507
2 | 3:26.58 | 2:47.57 | 15508 | 28089
3 | 6:14.40 | 4:17.55 | 28090 | 47419
4 | 10:32.20 | 3:21.33 | 47420 | 62527
5 | 13:53.53 | 4:30.27 | 62528 | 82804
6 | 18:24.05 | 3:54.38 | 82805 | 100392
7 | 22:18.43 | 8:05.00 | 100393 | 136767
8 | 30:23.43 | 4:42.50 | 136768 | 157967
9 | 35:06.18 | 3:09.47 | 157968 | 172189

Характеристики диапазона извлечения и сообщения об ошибках

Выбранный диапазон Имя файла F:\MusicCD\Torrent\John Cale - Guts\John Cale - Guts.wav Пиковый уровень 100.0 %
Скорость извлечения 6.8 X
Качество диапазона 100.0 %
CRC теста 9E2A5471
CRC копии 9E2A5471
Копирование... OK

Ошибок не произошло


AccurateRip: сводка

Трек 1 : извлечено точно (доверие 8) [2BEFE98A] (AR v2)
Трек 2 : извлечено точно (доверие 7) [93CE902D] (AR v2)
Трек 3 : извлечено точно (доверие 8) [7F8376B8] (AR v2)
Трек 4 : извлечено точно (доверие 8) [2B2C40B0] (AR v2)
Трек 5 : извлечено точно (доверие 8) [C4435AE2] (AR v2)
Трек 6 : извлечено точно (доверие 8) [D15EBF85] (AR v2)
Трек 7 : извлечено точно (доверие 6) D64A6D0 (AR v2)
Трек 8 : извлечено точно (доверие 7) [F4D752FC] (AR v2)
Трек 9 : извлечено точно (доверие 8) [DA9A64CB] (AR v2)

Все треки извлечены точно

Конец отчёта

---- CUETools DB Plugin V2.1.6

[CTDB TOCID: XkpDXGRo_XRIft5FMRNJAKrAiWQ-] found
Submit result: XkpDXGRo_XRIft5FMRNJAKrAiWQ- has been confirmed
Track | CTDB Status
1 | (3/3) Accurately ripped
2 | (3/3) Accurately ripped
3 | (3/3) Accurately ripped
4 | (3/3) Accurately ripped
5 | (3/3) Accurately ripped
6 | (3/3) Accurately ripped
7 | (3/3) Accurately ripped
8 | (3/3) Accurately ripped
9 | (3/3) Accurately ripped

==== Контрольная сумма отчёта 05973E6A15FD5E8A6D9FD59CA2B729ED935ADB343DB082696D8B0F5FAB80BD1E ====

foobar2000 1.2 / Dynamic Range Meter 1.1.1
log date: 2015-06-12 00:38:44

------
Analyzed: John Cale / Guts
------

DR Peak RMS Duration Track
------
DR11 0.00 dB -12.63 dB 3:27 01-Guts
DR11 0.00 dB -12.50 dB 2:48 02-Mary Lou
DR12 0.00 dB -13.69 dB 4:18 03-Helen Of Troy
DR12 0.00 dB -12.94 dB 3:21 04-Pablo Picasso
DR12 0.00 dB -13.08 dB 4:30 05-Leaving It Up To You
DR12 0.00 dB -14.53 dB 3:55 06-Fear Is A Man's Best Friend
DR12 0.00 dB -13.35 dB 8:05 07-Gun
DR11 0.00 dB -13.74 dB 4:43 08-Dirtyass Rock 'n' Roll
DR11 0.00 dB -12.47 dB 3:10 09-Heartbreak Hotel
------

Number of tracks: 9
Official DR value: DR11

Samplerate: 44100 Hz
Channels: 2
Bits per sample: 16
Bitrate: 892 kbps
Codec: FLAC

John Cale - Guts (1977)

John Cale - Guts (1977)

All thanks to original releaser - squirr




DOWNLOAD LINKS:
(Premium Recommended)


All above links are interchangable. No password

Direct Download

John Cale - Guts (1977) Download via Hotfile Rapidshare Fileserve Megaupload & FileSonic, John Cale - Guts (1977) free torrent downloads included crack, serial, keygen.


Attention!Information

Members of Guest cannot leave comments.