Captain Beefheart & The Magic Band - Ice Cream For Crow (1982) [2015, Universal Music Japan, UICY-40148]

Download Now

Captain Beefheart & The Magic Band - Ice Cream For Crow (1982) [2015, Universal Music Japan, UICY-40148]

Captain Beefheart & The Magic Band - Ice Cream For Crow (1982)
EAC | Flac(Image) + Cue + Log & MP3 CBR 320Kbps
Universal Music Japan, UICY-40148 | ~ 257 or 108 Mb | Scans(png) -> 213 Mb
Experimental Rock / Alternative Rock / Avantgarde

"With yet one final Magic Band lineup in place, featuring Richard Snyder on bass and Cliff Martinez on drums alongside returning vets Jeff Moris Tepper and Gary Lucas, Beefheart put the final touch on his recording career to date with Ice Cream for Crow..."


Tracklist:

01. Ice Cream For Crow 04:35
02. The Host, The Ghost, The Most Holy-O 02:25
03. Semi-Multicoloured Caucasian 04:21
04. Hey Garland, I Dig Your Tweed Coat 03:12
05. Evening Bell 02:00
06. Cardboard Cutout Sundown 02:38
07. The Past Sure Is Tense 03:22
08. Ink Mathematics 01:40
09. The Witch Doctor Life 02:38
10. '81' Poop Hatch 02:38
11. The Thousandth And Tenth Day Of The Human Totem Pole 05:43
12. Skeleton Makes Good 02:17

Exact Audio Copy V1.0 beta 6 from 9. April 2015

EAC extraction logfile from 9. June 2015, 20:18

Captain Beefheart & The Magic Band / Ice Cream For Crow PT-SHM

Used drive : PLEXTOR BD-R PX-B950SA Adapter: 1 ID: 1

Read mode : Secure
Utilize accurate stream : Yes
Defeat audio cache : Yes
Make use of C2 pointers : No

Read offset correction

: 6
Overread into Lead-In and Lead-Out : No
Fill up missing offset samples with silence : Yes
Delete leading and trailing silent blocks : No
Null samples used in CRC calculations : Yes
Used interface
: Native Win32 interface for Win NT & 2000

Used output format : Internal WAV Routines
Sample format : 44.100 Hz; 16 Bit; Stereo

TOC of the extracted CD Track | Start | Length | Start sector | End sector
1 | 0:00.00 | 4:35.50 | 0 | 20674 2 | 4:35.50 | 2:25.37 | 20675 | 31586 3 | 7:01.12 | 4:21.08 | 31587 | 51169 4 | 11:22.20 | 3:12.65 | 51170 | 65634 5 | 14:35.10 | 2:00.45 | 65635 | 74679 6 | 16:35.55 | 2:38.55 | 74680 | 86584 7 | 19:14.35 | 3:22.47 | 86585 | 101781 8 | 22:37.07 | 1:40.40 | 101782 | 109321 9 | 24:17.47 | 2:38.35 | 109322 | 121206
10 | 26:56.07 | 2:38.48 | 121207 | 133104
11 | 29:34.55 | 5:43.35 | 133105 | 158864
12 | 35:18.15 | 2:17.30 | 158865 | 169169

Range status and errors

Selected range Filename C:\Users\Meijin\Desktop\ALLexxess\Captain Beefheart\1982 Ice Cream For Crow (Mini LP PT-SHM Universal Japan 2015)\Captain Beefheart & The Magic Band - Ice Cream For Crow PT-SHM.wav Peak level 98.1 %
Extraction speed 6.3 X
Range quality 99.9 %
Test CRC DF080C86
Copy CRC DF080C86
Copy OK

No errors occurred


AccurateRip summary

Track 1 not present in database
Track 2 not present in database
Track 3 not present in database
Track 4 not present in database
Track 5 not present in database
Track 6 not present in database
Track 7 not present in database
Track 8 not present in database
Track 9 not present in database
Track 10 not present in database
Track 11 not present in database
Track 12 not present in database

None of the tracks are present in the AccurateRip database

End of status report

---- CUETools DB Plugin V2.1.6

[CTDB TOCID: llW2d6Trao3YafHke591F2ozamc-] disk not present in database
Submit result: llW2d6Trao3YafHke591F2ozamc- has been uploaded

==== Log checksum B0164B11C3C44E78461C789E811F296947CF89B6672A058312DD84AF692B1E19 ====

foobar2000 1.2.9 / Dynamic Range Meter 1.1.1
log date: 2015-06-12 11:26:27

------
Analyzed: Captain Beefheart & The Magic Band / Ice Cream For Crow PT-SHM
------

DR Peak RMS Duration Track
------
DR13 -2.16 dB -17.30 dB 4:36 01-Ice Cream For Crow
DR12 -2.76 dB -16.62 dB 2:25 02-The Host The Ghost The Most Holy-O
DR13 -2.27 dB -16.64 dB 4:21 03-Semi-Multicoloured Caucasian
DR13 -0.16 dB -17.24 dB 3:13 04-Hey Garland, I Dig Your Tweed Coat
DR14 -4.48 dB -21.93 dB 2:01 05-Evening Bell
DR13 -2.49 dB -17.41 dB 2:39 06-Cardboard Cutout Sundown
DR11 -3.04 dB -17.19 dB 3:23 07-The Past Sure Is Tense
DR13 -2.29 dB -16.96 dB 1:41 08-Ink Mathematics
DR12 -2.26 dB -17.37 dB 2:38 09-The Witch Doctor Life
DR12 -5.83 dB -20.60 dB 2:39 10-'81' Poop Hatch
DR14 -1.79 dB -19.04 dB 5:43 11-The Thousandth And Tenth Day Of The Human Totem Pole
DR12 -3.01 dB -19.13 dB 2:17 12-Skeleton Makes Good
------

Number of tracks: 12
Official DR value: DR13

Samplerate: 44100 Hz
Channels: 2
Bits per sample: 16
Bitrate: 831 kbps
Codec: FLAC

[CUETools log; Date: 12.06.2015 11:00:10; Version: 2.1.4]
[CTDB TOCID: llW2d6Trao3YafHke591F2ozamc-] found.
Track | CTDB Status
1 | (1/1) Accurately ripped
2 | (1/1) Accurately ripped
3 | (1/1) Accurately ripped
4 | (1/1) Accurately ripped
5 | (1/1) Accurately ripped
6 | (1/1) Accurately ripped
7 | (1/1) Accurately ripped
8 | (1/1) Accurately ripped
9 | (1/1) Accurately ripped
10 | (1/1) Accurately ripped
11 | (1/1) Accurately ripped
12 | (1/1) Accurately ripped
[AccurateRip ID: 001125c7-009d3687-b808cf0c] disk not present in database.

Track Peak [ CRC32 ] [W/O NULL] [ LOG ]
-- 98,1 [DF080C86] [D14196CA] CRC32
01 77,9 [20D2ED64] [C5AF3F3D]
02 72,7 [DA1D62B1] [0911A561]
03 77,0 [C4AF650E] [1E0FA5B6]
04 98,1 [6B329E10] [D4663389]
05 59,7 [7DAB62F6] E3DE87F
06 75,0 [CAB962A4] [F8758A28]
07 70,4 [939D1254] [7A794C24]
08 76,8 [7B889F5A] [AC478F02]
09 77,1 [D13094EB] [C6ECF1AB]
10 51,1 [D6D606CE] [96EA988B]
11 81,3 [27BEBAC6] CB3D37F
12 70,7 [318FBBAD] [ACC25D7B]

Captain Beefheart & The Magic Band - Ice Cream For Crow (1982) [2015, Universal Music Japan, UICY-40148]

Download Links:
(Premium Recommended)


All above links are interchangable. No password

Direct Download

Tags: Captain, Beefheart, Universal

Captain Beefheart & The Magic Band - Ice Cream For Crow (1982) [2015, Universal Music Japan, UICY-40148] Download via Hotfile Rapidshare Fileserve Megaupload & FileSonic, Captain Beefheart & The Magic Band - Ice Cream For Crow (1982) [2015, Universal Music Japan, UICY-40148] free torrent downloads included crack, serial, keygen.


Attention!Information

Members of Guest cannot leave comments.