Labelle - Nightbirds (1974) [2015 Audio Fidelity SACD AFZ5 196]

Download Now

Labelle - Nightbirds (1974) [2015 Audio Fidelity SACD AFZ5 196]

Labelle - Nightbirds (1974) [2015 Audio Fidelity SACD AFZ5 196]
EAC Secure Rip | FLAC (Image + Cue + Log) - 235 MB | Complete Scans (Jpeg 600 dpi) - 147 MB | MP3 (CBR320 Kbps) - 94.6 MB
R&B, Funk | Audio Fidelity | AFZ5 196 | 36:21 minutes | Hosted On: NitroFlare
CONTAINS CD LAYER ONLY

Nightbirds is an album by the all-female singing group Labelle. Notable for their biggest hit, the number-one song, "Lady Marmalade", it became the group's most successful album to date.
"The finest of Labelle's original albums, Nightbirds was recorded in New Orleans with funkmeister Allen Toussaint handling the production chores and, one assumes, members of the Meters taking care of the session work. Worth the price of admission for the Bob Crewe-written "Lady Marmalade" alone, the album veers between the strutting New Orleans, horn-laden singles and more mainstream pop material. Reviewed by Rob Bowman allmusic.com"


Exact Audio Copy V1.0 beta 2 from 29. April 2011

EAC extraction logfile from 14. May 2015, 16:44

Labelle / Nightbirds [2015 Audio Fidelity SACD AFZ5 196]

Used drive : HL-DT-STBD-RE BH14NS40 Adapter: 0 ID: 2

Read mode : Secure
Utilize accurate stream : Yes
Defeat audio cache : Yes
Make use of C2 pointers : No

Read offset correction

: 6
Overread into Lead-In and Lead-Out : No
Fill up missing offset samples with silence : Yes
Delete leading and trailing silent blocks : No
Null samples used in CRC calculations : Yes
Used interface
: Native Win32 interface for Win NT & 2000

Used output format : User Defined Encoder
Selected bitrate : 1024 kBit/s
Quality : High
Add ID3 tag : No
Command line compressor : C:\Program Files (x86)\Exact Audio Copy\Flac\flac.exe
Additional command line options : -V -5 -T "artist=%albumartist%" -T "title=%title%" -T "album=%albumtitle%" -T "date=%year%" -T "genre=%genre%" -T "tracknumber=%tracknr%" %source%

TOC of the extracted CD Track | Start | Length | Start sector | End sector
1 | 0:00.16 | 3:57.66 | 16 | 17856 2 | 3:58.07 | 3:25.52 | 17857 | 33283 3 | 7:23.59 | 3:15.19 | 33284 | 47927 4 | 10:39.03 | 4:03.38 | 47928 | 66190 5 | 14:42.41 | 2:50.32 | 66191 | 78972 6 | 17:32.73 | 4:03.12 | 78973 | 97209 7 | 21:36.10 | 3:10.01 | 97210 | 111460 8 | 24:46.11 | 3:02.37 | 111461 | 125147 9 | 27:48.48 | 3:51.00 | 125148 | 142472
10 | 31:39.48 | 4:41.33 | 142473 | 163580

Range status and errors

Selected range Filename C:\EAC\Labelle - (1974) Nightbirds [2015 Audio Fidelity SACD AFZ5 196]\Labelle - Nightbirds [2015 Audio Fidelity SACD AFZ5 196].wav Peak level 100.0 %
Extraction speed 3.9 X
Range quality 100.0 %
Test CRC 1647BA24
Copy CRC 1647BA24
Copy OK

No errors occurred


AccurateRip summary

Track 1 not present in database
Track 2 not present in database
Track 3 not present in database
Track 4 not present in database
Track 5 not present in database
Track 6 not present in database
Track 7 not present in database
Track 8 not present in database
Track 9 not present in database
Track 10 not present in database

None of the tracks are present in the AccurateRip database

End of status report

==== Log checksum B01BB1DFE76A0919271B056D219A25F09A0322E7FB3DFECE89E7AD30F216183B ====

Track Listing:

01. Lady Marmalade
02. Somebody Somewhere
03. Are You Lonely?
04. It Took A Long Time
05. Don't Bring Me Down
06. What Can I Do For You?
07. Nightbird
08. Space Children
09. All Girl Band
10. You Turn Me On

Personnel:

Patti LaBelle - Lead and Backing Vocals
Nona Hendryx - Lead and Backing Vocals
Sarah Dash - Lead and Backing Vocals
Allen Toussaint - Keyboards, Percussion, Guitar
Art Neville - Organ
George Porter, Jr. - Bass
Walter Payton - Bass
Leo Nocentelli - Guitar
Rev Batts - Guitar
Smokey Johnson - Drums
Herman Ernest III - Drums
Bud Ellison - Piano
Earl Turbinton - Alto Saxophone, Soprano Saxophone, Clarinet
Alvin Thomas - Tenor Saxophone
Lon Price - Flute
Clyde Kerr Jr. - Trumpet
Steve Howard - Trumpet
Lester Caliste - Trombone
Carl Blonin - Baritone Saxophone
Clarence Ford - Alto Saxophone

Album Released: September 13, 1974
Audio Fidelity SACD Released: May 26, 2015

Quadrophonic Sound And Remix Supervision: Harold Kleiner
Quadrophonic Engineer: Harold Kleiner
4.0 Analog To High Definition DSD Digital Tranfer: Gus Skinas, Super Audio Center-Boulder, CO
Stereo CD and SACD Mastering: Kevin Gray At Cohearent Audio

foobar2000 1.3.2 / Dynamic Range Meter 1.1.0
log date: 2015-06-10 01:15:15

------
Analyzed: Labelle / Nightbirds [2015 Audio Fidelity SACD AFZ5 196]
------

DR Peak RMS Duration Track
------
DR12 0.00 dB -14.07 dB 3:58 01-Lady Marmalade
DR12 0.00 dB -14.31 dB 3:26 02-Somebody Somewhere
DR12 0.00 dB -14.10 dB 3:15 03-Are You Lonely?
DR12 -0.24 dB -15.07 dB 4:04 04-It Took A Long Time
DR13 0.00 dB -14.58 dB 2:50 05-Don't Bring Me Down
DR12 -0.55 dB -14.63 dB 4:03 06-What Can I Do For You?
DR12 -0.84 dB -15.42 dB 3:10 07-Nightbird
DR13 0.00 dB -15.05 dB 3:02 08-Space Children
DR13 0.00 dB -14.74 dB 3:51 09-All Girl Band
DR12 -0.68 dB -15.02 dB 4:41 10-You Turn Me On
------

Number of tracks: 10
Official DR value: DR12

Samplerate: 44100 Hz
Channels: 2
Bits per sample: 16
Bitrate: 861 kbps
Codec: FLAC

Labelle - Nightbirds (1974) [2015 Audio Fidelity SACD AFZ5 196]

Labelle - Nightbirds (1974) [2015 Audio Fidelity SACD AFZ5 196]

Labelle - Nightbirds (1974) [2015 Audio Fidelity SACD AFZ5 196]

| |

DOWNLOAD
(Premium Recommended)


All above links are interchangable. No password

Direct Download

Tags: Labelle, Nightbirds, Fidelity

Labelle - Nightbirds (1974) [2015 Audio Fidelity SACD AFZ5 196] Download via Hotfile Rapidshare Fileserve Megaupload & FileSonic, Labelle - Nightbirds (1974) [2015 Audio Fidelity SACD AFZ5 196] free torrent downloads included crack, serial, keygen.


Attention!Information

Members of Guest cannot leave comments.