Frank Zappa - The Lost Episodes (1996) {Rykodisc Remaster Complete Series}

Download Now


Frank Zappa - The Lost Episodes (1996) {Rykodisc Remaster Complete Series}
Frank Zappa - The Lost Episodes (1996) {Rykodisc Remaster Complete Series}
EAC rip (secure mode) | FLAC (tracks)+CUE+LOG -> 442 Mb | MP3 @320 -> 170 Mb
Full Artwork @ 600 dpi (png) -> 774 Mb | 5% repair rar
© 1996 Rykodisc / The Zappa Family Trust | RCD 40573
Rock / Jazz Rock / Experimental Rock / Art Rock

"Official Release #64. A 30-track compilation of rarities, spanning much of his career, but in the main confined to the 1960s and early '70s (some date from as early as the late '50s!). Much of it's previously unreleased, or extremely hard to locate. It's not just a collection of fan-oriented odds and ends, though. The material, for one thing, is extremely diverse, ranging from collaborations with Captain Beefheart and primitive teenage garage recordings to comic dialog to progressive instrumentals and orchestral pieces."

Frank Zappa - The Lost Episodes (1996) {Rykodisc Remaster Complete Series}

"The pre-Freak Out stuff in particular is revelatory, in the sense that it finds Zappa's sophisticated compositional and arrangement skills in full bloom years before he made his proper debut. There's also good old rock and roll, in an early version of "Any Way the Wind Blows," and an early '60s take of "Fountain of Love" with explosive fuzz bass. The cuts range in duration from 11 seconds to 11 minutes, often connected by amusing bits of spoken patter or nifty instrumental links. The effect is somewhat like Uncle Meat or Lumpy Gravy, meaning that those who appreciate that period of Zappa's evolution will find an immediate affinity with this anthology."


Frank Zappa - The Lost Episodes (1996) {Rykodisc Remaster Complete Series}


tracklist:
01 - The Blackouts
02 - Lost In A Whirlpool
03 - Ronnie Sings
04 - Kenny's Booger Story
05 - Ronnie's Booger Story
06 - Mount St. Mary's Concert Excerpt
07 - Take Your Clothes Off When You Dance
08 - Tiger Roach
09 - Run Home Slow Theme
10 - Fountain Of Love
11 - Run Home Cues, #2
12 - Any Way The Wind Blows
13 - Run Home Cues, #3
14 - Charva
15 - The Dick Kunc Story
16 - Wedding Dress Song
17 - Handsome Cabin Boy
18 - Cops & Buns
19 - The Big Squeeze
20 - I'm A Band Leader
21 - Alley Cat
22 - The Grand Wazoo
23 - Wonderful Wino
24 - Kung Fu
25 - RDNZL
26 - Basement Music #1
27 - Inca Roads
28 - Lil' Clanton Shuffle
29 - I Don't Wanna Get Drafted
30 - Sharleena

Exact Audio Copy V1.0 beta 4 from 7. December 2014

EAC extraction logfile from 14. June 2015, 20:26

Frank Zappa / The Lost Episodes

Used drive : ATAPI iHAS124 B Adapter: 1 ID: 0

Read mode : Secure
Utilize accurate stream : Yes
Defeat audio cache : Yes
Make use of C2 pointers : No

Read offset correction

: 6
Overread into Lead-In and Lead-Out : No
Fill up missing offset samples with silence : Yes
Delete leading and trailing silent blocks : No
Null samples used in CRC calculations : Yes
Used interface
: Native Win32 interface for Win NT & 2000
Gap handling
: Appended to previous track

Used output format : User Defined Encoder
Selected bitrate : 1024 kBit/s
Quality : High
Add ID3 tag : No
Command line compressor : C:\Program Files (x86)\FLAC Frontend\tools\flac.exe
Additional command line options : -8 -V -T "ARTIST=%artist%" -T "TITLE=%title%" -T "ALBUM=%albumtitle%" -T "DATE=%year%" -T "TRACKNUMBER=%tracknr%" -T "TOTALTRACKS=%numtracks%" -T "GENRE=%genre%" -T "ALBUMARTIST=%albumartist%" -T "ALBUM ARTIST=%albumartist%" -T "COMMENT=EAC Secure Mode, Test & Copy, AccurateRip, FLAC -8" %source%

TOC of the extracted CD Track | Start | Length | Start sector | End sector
1 | 0:00.00 | 0:22.65 | 0 | 1714 2 | 0:22.65 | 2:46.20 | 1715 | 14184 3 | 3:09.10 | 1:05.47 | 14185 | 19106 4 | 4:14.57 | 0:33.05 | 19107 | 21586 5 | 4:47.62 | 1:16.15 | 21587 | 27301 6 | 6:04.02 | 2:28.43 | 27302 | 38444 7 | 8:32.45 | 3:51.10 | 38445 | 55779 8 | 12:23.55 | 2:20.37 | 55780 | 66316 9 | 14:44.17 | 1:25.20 | 66317 | 72711
10 | 16:09.37 | 2:08.25 | 72712 | 82336
11 | 18:17.62 | 0:28.08 | 82337 | 84444
12 | 18:45.70 | 2:14.25 | 84445 | 94519
13 | 21:00.20 | 0:11.00 | 94520 | 95344
14 | 21:11.20 | 1:59.37 | 95345 | 104306
15 | 23:10.57 | 0:46.03 | 104307 | 107759
16 | 23:56.60 | 1:14.37 | 107760 | 113346
17 | 25:11.22 | 1:21.20 | 113347 | 119441
18 | 26:32.42 | 2:36.43 | 119442 | 131184
19 | 29:09.10 | 0:43.17 | 131185 | 134426
20 | 29:52.27 | 1:14.20 | 134427 | 139996
21 | 31:06.47 | 2:47.00 | 139997 | 152521
22 | 33:53.47 | 2:12.58 | 152522 | 162479
23 | 36:06.30 | 2:47.02 | 162480 | 175006
24 | 38:53.32 | 1:06.35 | 175007 | 179991
25 | 39:59.67 | 3:49.43 | 179992 | 197209
26 | 43:49.35 | 3:46.05 | 197210 | 214164
27 | 47:35.40 | 3:42.60 | 214165 | 230874
28 | 51:18.25 | 4:47.60 | 230875 | 252459
29 | 56:06.10 | 3:24.65 | 252460 | 267824
30 | 59:31.00 | 11:54.57 | 267825 | 321431

Track 1 Filename D:\_EAC\Frank Zappa - The Lost Episodes (1996) [FLAC] {Rykodisc Remaster Complete Series}\01 - The Blackouts.wav Pre-gap length 0:00:02.00 Peak level 59.9 %
Extraction speed 0.7 X
Track quality 99.5 %
Test CRC 74DEBF09
Copy CRC 74DEBF09
Accurately ripped (confidence 22) [578D6549] (AR v2)
Copy OK

Track 2 Filename D:\_EAC\Frank Zappa - The Lost Episodes (1996) [FLAC] {Rykodisc Remaster Complete Series}\02 - Lost In A Whirlpool.wav Peak level 86.7 %
Extraction speed 3.5 X
Track quality 100.0 %
Test CRC 431B55CB
Copy CRC 431B55CB
Accurately ripped (confidence 22) [A4C3B5AA] (AR v2)
Copy OK

Track 3 Filename D:\_EAC\Frank Zappa - The Lost Episodes (1996) [FLAC] {Rykodisc Remaster Complete Series}\03 - Ronnie Sings.wav Peak level 86.9 %
Extraction speed 2.9 X
Track quality 100.0 %
Test CRC D022AE45
Copy CRC D022AE45
Accurately ripped (confidence 22) [65ED0B8C] (AR v2)
Copy OK

Track 4 Filename D:\_EAC\Frank Zappa - The Lost Episodes (1996) [FLAC] {Rykodisc Remaster Complete Series}\04 - Kenny's Booger Story.wav Peak level 60.5 %
Extraction speed 2.1 X
Track quality 100.0 %
Test CRC 45F507F0
Copy CRC 45F507F0
Accurately ripped (confidence 22) [72D94082] (AR v2)
Copy OK

Track 5 Filename D:\_EAC\Frank Zappa - The Lost Episodes (1996) [FLAC] {Rykodisc Remaster Complete Series}\05 - Ronnie's Booger Story.wav Peak level 74.6 %
Extraction speed 3.1 X
Track quality 100.0 %
Test CRC B64E5F6F
Copy CRC B64E5F6F
Accurately ripped (confidence 22) [C83DBDCC] (AR v2)
Copy OK

Track 6 Filename D:\_EAC\Frank Zappa - The Lost Episodes (1996) [FLAC] {Rykodisc Remaster Complete Series}\06 - Mount St. Mary's Concert Excerpt.wav Peak level 82.7 %
Extraction speed 3.9 X
Track quality 100.0 %
Test CRC 19096FA5
Copy CRC 19096FA5
Accurately ripped (confidence 22) [D30C3B6D] (AR v2)
Copy OK

Track 7 Filename D:\_EAC\Frank Zappa - The Lost Episodes (1996) [FLAC] {Rykodisc Remaster Complete Series}\07 - Take Your Clothes Off When You Dance.wav Peak level 94.7 %
Extraction speed 4.5 X
Track quality 100.0 %
Test CRC E2D3CA22
Copy CRC E2D3CA22
Accurately ripped (confidence 22) [890D8B4F] (AR v2)
Copy OK

Track 8 Filename D:\_EAC\Frank Zappa - The Lost Episodes (1996) [FLAC] {Rykodisc Remaster Complete Series}\08 - Tiger Roach.wav Peak level 98.0 %
Extraction speed 4.3 X
Track quality 100.0 %
Test CRC 75577BD5
Copy CRC 75577BD5
Accurately ripped (confidence 22) [C6F74173] (AR v2)
Copy OK

Track 9 Filename D:\_EAC\Frank Zappa - The Lost Episodes (1996) [FLAC] {Rykodisc Remaster Complete Series}\09 - Run Home Slow Theme.wav Peak level 98.3 %
Extraction speed 3.9 X
Track quality 100.0 %
Test CRC 8E83DDF0
Copy CRC 8E83DDF0
Accurately ripped (confidence 22) [7272F315] (AR v2)
Copy OK

Track 10 Filename D:\_EAC\Frank Zappa - The Lost Episodes (1996) [FLAC] {Rykodisc Remaster Complete Series}\10 - Fountain Of Love.wav Peak level 95.5 %
Extraction speed 4.5 X
Track quality 100.0 %
Test CRC 485EB72A
Copy CRC 485EB72A
Accurately ripped (confidence 22) [66646399] (AR v2)
Copy OK

Track 11 Filename D:\_EAC\Frank Zappa - The Lost Episodes (1996) [FLAC] {Rykodisc Remaster Complete Series}\11 - Run Home Cues, #2.wav Peak level 95.5 %
Extraction speed 2.4 X
Track quality 100.0 %
Test CRC 7A5778E3
Copy CRC 7A5778E3
Accurately ripped (confidence 22) [A70672DB] (AR v2)
Copy OK

Track 12 Filename D:\_EAC\Frank Zappa - The Lost Episodes (1996) [FLAC] {Rykodisc Remaster Complete Series}\12 - Any Way The Wind Blows.wav Peak level 97.4 %
Extraction speed 4.7 X
Track quality 100.0 %
Test CRC 520C6096
Copy CRC 520C6096
Accurately ripped (confidence 22) [36516920] (AR v2)
Copy OK

Track 13 Filename D:\_EAC\Frank Zappa - The Lost Episodes (1996) [FLAC] {Rykodisc Remaster Complete Series}\13 - Run Home Cues, #3.wav Peak level 97.1 %
Extraction speed 1.3 X
Track quality 100.0 %
Test CRC 84299D15
Copy CRC 84299D15
Accurately ripped (confidence 22) [E7E2C3A8] (AR v2)
Copy OK

Track 14 Filename D:\_EAC\Frank Zappa - The Lost Episodes (1996) [FLAC] {Rykodisc Remaster Complete Series}\14 - Charva.wav Peak level 91.9 %
Extraction speed 3.3 X
Track quality 99.9 %
Test CRC AF1A4809
Copy CRC AF1A4809
Accurately ripped (confidence 22) [D728B63A] (AR v2)
Copy OK

Track 15 Filename D:\_EAC\Frank Zappa - The Lost Episodes (1996) [FLAC] {Rykodisc Remaster Complete Series}\15 - The Dick Kunc Story.wav Peak level 96.9 %
Extraction speed 3.4 X
Track quality 100.0 %
Test CRC 1644A0CF
Copy CRC 1644A0CF
Accurately ripped (confidence 22) [144975DA] (AR v2)
Copy OK

Track 16 Filename D:\_EAC\Frank Zappa - The Lost Episodes (1996) [FLAC] {Rykodisc Remaster Complete Series}\16 - Wedding Dress Song.wav Peak level 94.4 %
Extraction speed 4.1 X
Track quality 100.0 %
Test CRC F8E437E9
Copy CRC F8E437E9
Accurately ripped (confidence 22) [17763584] (AR v2)
Copy OK

Track 17 Filename D:\_EAC\Frank Zappa - The Lost Episodes (1996) [FLAC] {Rykodisc Remaster Complete Series}\17 - Handsome Cabin Boy.wav Peak level 100.0 %
Extraction speed 4.4 X
Track quality 100.0 %
Test CRC 52C48CF8
Copy CRC 52C48CF8
Accurately ripped (confidence 22) [98611188] (AR v2)
Copy OK

Track 18 Filename D:\_EAC\Frank Zappa - The Lost Episodes (1996) [FLAC] {Rykodisc Remaster Complete Series}\18 - Cops & Buns.wav Peak level 77.0 %
Extraction speed 5.4 X
Track quality 100.0 %
Test CRC AB4B14FC
Copy CRC AB4B14FC
Accurately ripped (confidence 22) [A888DC5F] (AR v2)
Copy OK

Track 19 Filename D:\_EAC\Frank Zappa - The Lost Episodes (1996) [FLAC] {Rykodisc Remaster Complete Series}\19 - The Big Squeeze.wav Peak level 95.4 %
Extraction speed 3.5 X
Track quality 100.0 %
Test CRC 278CAC78
Copy CRC 278CAC78
Accurately ripped (confidence 22) [6FDDC8F6] (AR v2)
Copy OK

Track 20 Filename D:\_EAC\Frank Zappa - The Lost Episodes (1996) [FLAC] {Rykodisc Remaster Complete Series}\20 - I'm A Band Leader.wav Peak level 81.2 %
Extraction speed 4.5 X
Track quality 100.0 %
Test CRC 3A17A5F4
Copy CRC 3A17A5F4
Accurately ripped (confidence 22) [8ECB82A8] (AR v2)
Copy OK

Track 21 Filename D:\_EAC\Frank Zappa - The Lost Episodes (1996) [FLAC] {Rykodisc Remaster Complete Series}\21 - Alley Cat.wav Peak level 100.0 %
Extraction speed 4.2 X
Track quality 99.9 %
Test CRC 6CCB97F9
Copy CRC 6CCB97F9
Accurately ripped (confidence 22) 5D73046 (AR v2)
Copy OK

Track 22 Filename D:\_EAC\Frank Zappa - The Lost Episodes (1996) [FLAC] {Rykodisc Remaster Complete Series}\22 - The Grand Wazoo.wav Peak level 100.0 %
Extraction speed 3.9 X
Track quality 99.9 %
Test CRC 6C17DCAB
Copy CRC 6C17DCAB
Accurately ripped (confidence 22) [8C9C3590] (AR v2)
Copy OK

Track 23 Filename D:\_EAC\Frank Zappa - The Lost Episodes (1996) [FLAC] {Rykodisc Remaster Complete Series}\23 - Wonderful Wino.wav Peak level 87.1 %
Extraction speed 5.9 X
Track quality 100.0 %
Test CRC A2FDA768
Copy CRC A2FDA768
Accurately ripped (confidence 22) [3AB60C41] (AR v2)
Copy OK

Track 24 Filename D:\_EAC\Frank Zappa - The Lost Episodes (1996) [FLAC] {Rykodisc Remaster Complete Series}\24 - Kung Fu.wav Peak level 96.6 %
Extraction speed 4.8 X
Track quality 100.0 %
Test CRC 45EB62CC
Copy CRC 45EB62CC
Accurately ripped (confidence 21) [C0909D63] (AR v2)
Copy OK

Track 25 Filename D:\_EAC\Frank Zappa - The Lost Episodes (1996) [FLAC] {Rykodisc Remaster Complete Series}\25 - RDNZL.wav Peak level 100.0 %
Extraction speed 6.5 X
Track quality 100.0 %
Test CRC 344BFCD4
Copy CRC 344BFCD4
Accurately ripped (confidence 21) [1A6F0891] (AR v2)
Copy OK

Track 26 Filename D:\_EAC\Frank Zappa - The Lost Episodes (1996) [FLAC] {Rykodisc Remaster Complete Series}\26 - Basement Music #1.wav Peak level 91.5 %
Extraction speed 5.3 X
Track quality 99.9 %
Test CRC 22F7E61C
Copy CRC 22F7E61C
Accurately ripped (confidence 22) [F9EACAC8] (AR v2)
Copy OK

Track 27 Filename D:\_EAC\Frank Zappa - The Lost Episodes (1996) [FLAC] {Rykodisc Remaster Complete Series}\27 - Inca Roads.wav Peak level 100.0 %
Extraction speed 4.7 X
Track quality 99.9 %
Test CRC 8C835F1F
Copy CRC 8C835F1F
Accurately ripped (confidence 21) [9C54F8D6] (AR v2)
Copy OK

Track 28 Filename D:\_EAC\Frank Zappa - The Lost Episodes (1996) [FLAC] {Rykodisc Remaster Complete Series}\28 - Lil' Clanton Shuffle.wav Peak level 100.0 %
Extraction speed 6.0 X
Track quality 99.9 %
Test CRC 9818FD26
Copy CRC 9818FD26
Accurately ripped (confidence 21) [6D571927] (AR v2)
Copy OK

Track 29 Filename D:\_EAC\Frank Zappa - The Lost Episodes (1996) [FLAC] {Rykodisc Remaster Complete Series}\29 - I Don't Wanna Get Drafted.wav Peak level 100.0 %
Extraction speed 5.5 X
Track quality 99.9 %
Test CRC B2A3C113
Copy CRC B2A3C113
Accurately ripped (confidence 21) [82032659] (AR v2)
Copy OK

Track 30 Filename D:\_EAC\Frank Zappa - The Lost Episodes (1996) [FLAC] {Rykodisc Remaster Complete Series}\30 - Sharleena.wav Peak level 98.1 %
Extraction speed 8.5 X
Track quality 100.0 %
Test CRC 905F8699
Copy CRC 905F8699
Accurately ripped (confidence 19) [354FCE6C] (AR v2)
Copy OK

All tracks accurately ripped

No errors occurred

End of status report

==== Log checksum 53E803BE685ED402A5C2B38487F900EE24916128672817920031E8199C3A32CC ====

Frank Zappa - The Lost Episodes (1996) {Rykodisc Remaster Complete Series}

Frank Zappa - The Lost Episodes (1996) {Rykodisc Remaster Complete Series}

DOWNLOAD
(Premium Recommended)


All above links are interchangable. No password

Direct Download

Tags: Episodes, Rykodisc, Remaster, Complete, Series

Frank Zappa - The Lost Episodes (1996) {Rykodisc Remaster Complete Series} Download via Hotfile Rapidshare Fileserve Megaupload & FileSonic, Frank Zappa - The Lost Episodes (1996) {Rykodisc Remaster Complete Series} free torrent downloads included crack, serial, keygen.


Attention!Information

Members of Guest cannot leave comments.