Charlie Musselwhite - I Ain't Lyin'... (2015)

Download Now

Charlie Musselwhite - I Ain't Lyin'... (2015)

Charlie Musselwhite - I Ain't Lyin'... (2015)
EAC Rip | FLAC (Img) + Cue + Log ~ 358 Mb | MP3 CBR320 ~ 174 Mb
Scans Included (JPG, 600 dpi) | RAR 5% Recovery
Harmonica Blues | Henrietta Records #725518212485

""I Ain't Lyin'..." is all Charlie - original tunes penned by this Grammy winning master that resonate with the South itself - rising from the Mississippi, crossing the levy, dancing through the streets and cutting to the heart of all that matters. Charlie Musselwhite's journey through the blues was literal from his birth in Mississippi to Memphis, Chicago and California. Arriving in Chicago in the early sixties, he was just in time for the epochal blues revival. In 1966 at the age of 22 he recorded the landmark Stand Back! Here Comes Charlie Musselwhite's Southside Band to rave reviews. A precipitous relocation to San Francisco in 1967, where his album was being played on underground radio, found him welcomed into the counterculture scene around the Fillmore West as an authentic purveyor of the real deal blues. More than 20 albums later he is at the top of his game, a revered elder statesman of the blues nowhere near ready to hang up his harp belt, his depth of expression as a singer and an instrumentalist unexcelled and only getting deeper..."

Biographical Information:

2015 GRAMMY Nominee JUKE JOINT CHAPEL
2014 Grammy winner with Ben Harper GET UP
11-time GRAMMY Nominee
27-time Blues Music Award Winner
8-time Living Blues Award Winner

Earlier 2013, Ben Harper teamed up with Charlie to record Get Up! Other collaborators include Cyndi Lauper, Eddie Vedder, Tom Waits, Bonnie Raitt, The Blind Boys of Alabama, Gov't Mule, INXS, Mickey Hart, George Thorogood and personal friend and best man at his wedding John Lee Hooker.

2013 Living Blues Awards - Readers Poll named Charlie as Most Outstanding Musician (Harmonica).

2012 Blues Music Award Winner for Traditional Blues Male Artist of the Year and for Best Instrumentalist Harmonica.

2011 GRAMMY Nominee for Best Traditional Blues Album - The Well.
Featured on Cyndi Lauper's Memphis Blues, also a 2011 GRAMMY nominee for Best Traditional Blues Album.

2011 Blues Music Award Winner for Best Instrumentalist - Harmonica and Traditional Blues Male Artist of the Year! Also nominated for Album of the Year for The Well, Traditional Blues Album of the Year for The Well and Song of the Year for "Sad and Beautiful World."

2011 Living Blues Awards - Readers' Poll winner for Most Outstanding Musician award (Harmonica).

In 2011 Charlie was recognized in the DownBeat Magazine Critics Poll in both the Blues Artist category and Blues Album.

2010 Blues Hall of Fame Inductee.

2009 - Mississippi Blues Trail Marker Honoree. Created by the Mississippi Blues Commission, the Blues Trail is composed of historical markers and interpretive sites located throughout the state. Other artists honored with markers to date include fellow legends B.B. King, Bo Diddley, Howlin' Wolf, Jimmy Reed, Mississippi John Hurt, Muddy Waters, Robert Johnson and Willie Dixon.

Beale Street Brass Note Walk of Fame Honoree. Charlie's marker was placed outside of BB King‘s Nightclub in Memphis, TN in 2008.
~ cdbaby.com
Official Website | Wiki | Discogs | All Music
***************

Charlie Musselwhite - I Ain't Lyin'... (2015)

Track List:

01. Good Blues Tonight [04:06]
02. Done Somebody Wrong [04:19]
03. Long Lean Lanky Mama [04:54]
04. Always Be My Friend [03:32]
05. If I should have bad luck [06:02]
06. My Kinda Gal [07:42]
07. Blues Why Do You Worry Me [05:01]
08. 300 Miles To Go [04:52]
09. Long Leg Woman [06:21]
10. Cristo Redentor [05:58]
11. Good Blues Tonight (Unedited) [05:33]

Exact Audio Copy V1.0 beta 3 from 29. August 2011

Отчёт EAC об извлечении, выполненном 12. июня 2015, 22:01

Charlie Musselwhite / I Ain't Lying

Дисковод: PLEXTOR DVDR PX-880SA Adapter: 1 ID: 0

Режим чтения : Достоверность
Использование точного потока : Да
Отключение кэша аудио : Да
Использование указателей C2 : Нет

Коррекция смещения при чтении : 6
Способность читать области Lead-in и Lead-out : Нет
Заполнение пропущенных сэмплов тишиной : Да
Удаление блоков с тишиной в начале и конце : Нет
При вычислениях CRC использовались нулевые сэмплы : Да
Интерфейс : Установленный внешний ASPI-интерфейс

Выходной формат : Пользовательский кодировщик
Выбранный битрейт : 1024 kBit/s
Качество : Высокий
Добавление ID3-тега : Нет
Утилита сжатия : C:\Program Files\Exact Audio Copy\FLAC\FLAC.EXE
Дополнительные параметры : -10 -V -T "ARTIST=%artist%" -T "ALBUM=%albumtitle%" -T "DATE=%year%" -T "GENRE=%genre%" -T "COMMENT=ripped by izia1956" %source%

TOC извлечённого CD Трек | Старт | Длительность | Начальный сектор | Конечный сектор

1 | 0:00.00 | 4:05.48 | 0 | 18422
2 | 4:05.48 | 4:18.48 | 18423 | 37820
3 | 8:24.21 | 4:53.48 | 37821 | 59843
4 | 13:17.69 | 3:31.48 | 59844 | 75716
5 | 16:49.42 | 6:01.48 | 75717 | 102839
6 | 22:51.15 | 7:41.48 | 102840 | 137462
7 | 30:32.63 | 5:00.48 | 137463 | 160010
8 | 35:33.36 | 4:51.48 | 160011 | 181883
9 | 40:25.09 | 6:20.48 | 181884 | 210431
10 | 46:45.57 | 5:57.48 | 210432 | 237254
11 | 52:43.30 | 5:32.48 | 237255 | 262202

Характеристики диапазона извлечения и сообщения об ошибках

Выбранный диапазон Имя файла D:\BitComet\Charlie Musselwhite\2015 - I Ain't Lying\Charlie Musselwhite - I Ain't Lying.wav Пиковый уровень 99.9 %
Скорость извлечения 2.9 X
Качество диапазона 100.0 %
CRC теста 88E73D63
CRC копии 88E73D63
Копирование... OK

Ошибок не произошло


AccurateRip: сводка

Трек 1 отсутствует в базе данных
Трек 2 отсутствует в базе данных
Трек 3 отсутствует в базе данных
Трек 4 отсутствует в базе данных
Трек 5 отсутствует в базе данных
Трек 6 отсутствует в базе данных
Трек 7 отсутствует в базе данных
Трек 8 отсутствует в базе данных
Трек 9 отсутствует в базе данных
Трек 10 отсутствует в базе данных
Трек 11 отсутствует в базе данных

Ни одного трека нет в базе AccurateRip

Конец отчёта

==== Контрольная сумма отчёта F965242151A3BE9A546199C38AF2BCF4C7368290034690735D756F2235255645 ====

foobar2000 1.2.6 / Dynamic Range Meter 1.1.1
log date: 2015-06-13 20:11:52

------
Analyzed: Charlie Musselwhite / I Ain't Lying
------

DR Peak RMS Duration Track
------
DR12 -1.83 dB -15.04 dB 4:06 01-Good Blues Tonight
DR13 -2.07 dB -16.76 dB 4:19 02-Done Somebody Wrong
DR13 -2.67 dB -17.37 dB 4:54 03-Long Lean Lanky Mama
DR12 -0.71 dB -15.05 dB 3:32 04-Always Be My Friend
DR13 -1.97 dB -16.55 dB 6:02 05-If I should have bad luck
DR11 -0.99 dB -14.42 dB 7:42 06-My Kinda Gal
DR11 -2.63 dB -15.25 dB 5:01 07-Blues Why Do You Worry Me
DR11 -4.62 dB -18.25 dB 4:52 08-300 Miles To Go
DR14 -0.01 dB -16.55 dB 5:58 10-Cristo Redentor
DR12 -1.77 dB -14.76 dB 5:33 11-Good Blues Tonight (Unedited)
------

Number of tracks: 10
Official DR value: DR12

Samplerate: 44100 Hz
Channels: 2
Bits per sample: 16
Bitrate: 738 kbps
Codec: FLAC

------
Statistics for: 09-Long Leg Woman
Number of samples: 16786224
Duration: 6:21
------ Left Right

Peak Value: -0.34 dB --- -0.40 dB
Avg RMS: -15.92 dB --- -15.94 dB
DR channel: 14.38 dB --- 14.31 dB
------

Official DR Value: DR14

Samplerate: 44100 Hz
Channels: 2
Bits per sample: 16
Bitrate: 738 kbps
Codec: FLAC

[CUETools log; Date: 13.06.2015 20:11:36; Version: 2.1.5]
[CTDB TOCID: bkTJk_BmB0VCt2YMAFG.ZwIb7Y0-] found.
Track | CTDB Status
1 | (1/1) Accurately ripped
2 | (1/1) Accurately ripped
3 | (1/1) Accurately ripped
4 | (1/1) Accurately ripped
5 | (1/1) Accurately ripped
6 | (1/1) Accurately ripped
7 | (1/1) Accurately ripped
8 | (1/1) Accurately ripped
9 | (1/1) Accurately ripped
10 | (1/1) Accurately ripped
11 | (1/1) Accurately ripped
[AccurateRip ID: 0016a475-00c84625-8e0da80b] disk not present in database.

Track Peak [ CRC32 ] [W/O NULL] [ LOG ]
-- 99,9 [88E73D63] [E98FF18C] CRC32
01 80,9 5C6C96A [2F5C5D3C]
02 78,8 [7C68DB7B] [2E5C900A]
03 73,5 [CA8A2D43] [2F76B61E]
04 92,1 [8418693D] [3162B81D]
05 79,6 [3074D27C] [1A3EFBDF]
06 89,2 [8AD2D6A9] [5F584ABE]
07 73,9 [FDF2E25D] [810CD297]
08 58,7 [D3112A1E] [F68412EA]
09 96,2 [AE402D4D] [7C32C8A7]
10 99,9 [F9837455] [FCE5139C]
11 81,5 [48238D51] [A53361BB]

Charlie Musselwhite - I Ain't Lyin'... (2015)


Download Links:
(Premium Recommended)


All above links are interchangable. No password

Direct Download

Tags: Charlie, Musselwhite

Charlie Musselwhite - I Ain't Lyin'... (2015) Download via Hotfile Rapidshare Fileserve Megaupload & FileSonic, Charlie Musselwhite - I Ain't Lyin'... (2015) free torrent downloads included crack, serial, keygen.


Attention!Information

Members of Guest cannot leave comments.