Yes - House Of Yes: Live From House Of Blues (2000) [2CD + DVD]

Download Now

Yes - House Of Yes: Live From House Of Blues (2000) [2CD + DVD]

Yes - House Of Yes: Live From House Of Blues (2000)
EAC | Flac(Image) + Cue + Log & MP3 CBR 320Kbps
2CD | Beyond, 63985-78084-2 | ~ 833 or 267 Mb | Covers Included
DVD9: PAL 4:3 (720x576) VBR | Dolby AC3, 2ch, 224Kbps / 6ch, 448Kbps -> 7.52 Gb
Progressive Rock

"House of Yes: Live from House of Blues is a double live CD by progressive rock band Yes. The album was recorded on Halloween night in 1999 at the House of Blues in Las Vegas, Nevada, during touring obligations for the band's studio album, The Ladder..."


Tracklist CD1:

01. Yours Is No Disgrace (13:05)
02. Time And A Word (0:58)
03. Homeworld (The Ladder) (9:45)
04. Perpetual Change (10:49)
05. Lightning Strikes (5:07)
06. The Messenger (6:40)
07. Ritual - Nous Sommes Du Soleil (0:59)
08. And You And I (11:23)

Exact Audio Copy V0.99 prebeta 5 from 4. May 2009

EAC extraction logfile from 8. June 2009, 16:36

Yes / House Of Yes Live From House Of Blues Disc One

Used drive : _NEC DVD_RW ND-2500A Adapter: 0 ID: 1

Read mode : Secure
Utilize accurate stream : Yes
Defeat audio cache : Yes
Make use of C2 pointers : No

Read offset correction

: 48
Overread into Lead-In and Lead-Out : No
Fill up missing offset samples with silence : Yes
Delete leading and trailing silent blocks : No
Null samples used in CRC calculations : Yes
Used interface
: Native Win32 interface for Win NT & 2000
Gap handling
: Appended to previous track

Used output format : User Defined Encoder
Selected bitrate : 128 kBit/s
Quality : High
Add ID3 tag : No
Command line compressor : C:\Program Files\Utilities\EAC\FLAC\FLAC.EXE
Additional command line options : -V -8 -T "artist=%a" -T "title=%t" -T "album=%g" -T "date=%y" -T "tracknumber=%n" -T "genre=%m" %s

TOC of the extracted CD Track | Start | Length | Start sector | End sector
1 | 0:00.00 | 13:04.42 | 0 | 58841 2 | 13:04.42 | 0:57.65 | 58842 | 63181 3 | 14:02.32 | 9:45.18 | 63182 | 107074 4 | 23:47.50 | 10:48.62 | 107075 | 155736 5 | 34:36.37 | 5:07.20 | 155737 | 178781 6 | 39:43.57 | 6:39.58 | 178782 | 208764 7 | 46:23.40 | 0:58.45 | 208765 | 213159 8 | 47:22.10 | 11:23.22 | 213160 | 264406

Track 1 Filename D:\EAC Rips\01 - Yours Is No Disgrace.wav Pre-gap length 0:00:02.00 Peak level 96.7 %
Track quality 99.9 %
Test CRC 3D6AEC4C
Copy CRC 3D6AEC4C
Accurately ripped (confidence 12) [483528BE]
Copy OK

Track 2 Filename D:\EAC Rips\02 - Time And A Word.wav Peak level 82.1 %
Track quality 100.0 %
Test CRC 53D0695F
Copy CRC 53D0695F
Accurately ripped (confidence 12) [D13DFB33]
Copy OK

Track 3 Filename D:\EAC Rips\03 - Homeworld (The Ladder).wav Peak level 96.7 %
Track quality 99.9 %
Test CRC F752DFA0
Copy CRC F752DFA0
Accurately ripped (confidence 11) [CBBF6B75]
Copy OK

Track 4 Filename D:\EAC Rips\04 - Perpetual Change.wav Peak level 96.7 %
Track quality 99.9 %
Test CRC 5F6B84E6
Copy CRC 5F6B84E6
Accurately ripped (confidence 12) [52485728]
Copy OK

Track 5 Filename D:\EAC Rips\05 - Lightning Strikes.wav Peak level 96.5 %
Track quality 100.0 %
Test CRC 4AE0AAF5
Copy CRC 4AE0AAF5
Accurately ripped (confidence 12) [1C307A96]
Copy OK

Track 6 Filename D:\EAC Rips\06 - The Messenger.wav Peak level 96.7 %
Track quality 99.9 %
Test CRC 960A5D45
Copy CRC 960A5D45
Accurately ripped (confidence 12) [AE90D305]
Copy OK

Track 7 Filename D:\EAC Rips\07 - Ritual - Nous Sommes Du Soleil.wav Peak level 78.9 %
Track quality 100.0 %
Test CRC 847A4CF5
Copy CRC 847A4CF5
Accurately ripped (confidence 12) [032B84EA]
Copy OK

Track 8 Filename D:\EAC Rips\08 - And You And I.wav Peak level 96.7 %
Track quality 99.9 %
Test CRC 9DE00D56
Copy CRC 9DE00D56
Accurately ripped (confidence 12) [6277F266]
Copy OK

All tracks accurately ripped

No errors occurred

End of status report

foobar2000 1.2.9 / Dynamic Range Meter 1.1.1
log date: 2015-06-14 13:56:33

------
Analyzed: Yes / House Of Yes - Live From House Of Blues . Disc One
------

DR Peak RMS Duration Track
------
DR7 -0.28 dB -9.36 dB 13:05 01-Yours Is No Disgrace
DR11 -1.71 dB -14.94 dB 0:58 02-Time And A Word
DR7 -0.29 dB -9.93 dB 9:45 03-Homeworld (The Ladder)
DR7 -0.29 dB -8.98 dB 10:49 04-Perpetual Change
DR8 -0.31 dB -10.59 dB 5:07 05-Lightning Strikes
DR8 -0.28 dB -10.93 dB 6:40 06-The Messenger
DR11 -2.05 dB -16.78 dB 0:59 07-Ritual - Nous Sommes Du Soleil
DR9 -0.29 dB -11.97 dB 11:23 08-And You And I
------

Number of tracks: 8
Official DR value: DR8

Samplerate: 44100 Hz
Channels: 2
Bits per sample: 16
Bitrate: 1010 kbps
Codec: FLAC

[CUETools log; Date: 14.06.2015 13:56:43; Version: 2.1.4]
HDCD: peak extend: yes, transient filter: none, gain: none
[CTDB TOCID: Jx.k7UpanIzXWNHT464GrEEHGzg-] found.
Track | CTDB Status
1 | (19/19) Accurately ripped
2 | (19/19) Accurately ripped
3 | (19/19) Accurately ripped
4 | (19/19) Accurately ripped
5 | (19/19) Accurately ripped
6 | (19/19) Accurately ripped
7 | (19/19) Accurately ripped
8 | (19/19) Accurately ripped
[AccurateRip ID: 0013129e-007c1a56-820dc508] found.
Track [ CRC | V2 ] Status
01 [483528be|ebe901a1] (35+23/58) Accurately ripped
02 [d13dfb33|5a667688] (35+23/58) Accurately ripped
03 [cbbf6b75|ff6b19a5] (31+23/56) Accurately ripped
04 [52485728|b0d49ed4] (35+23/58) Accurately ripped
05 [1c307a96|9a0832f0] (35+23/58) Accurately ripped
06 [ae90d305|0e3e4037] (35+23/58) Accurately ripped
07 [032b84ea|b399eba9] (35+23/58) Accurately ripped
08 [6277f266|1fd74491] (33+23/56) Accurately ripped
Offsetted by -6:
01 [ea831182] (00/58) No match (V2 was not tested)
02 [a623f2f7] (00/58) No match (V2 was not tested)
03 [7d5bc9b9] (00/56) No match (V2 was not tested)
04 [f4b12e41] (00/58) No match (V2 was not tested)
05 [e4ad5e4e] (00/58) No match (V2 was not tested)
06 [498ca2a4] (00/58) No match (V2 was not tested)
07 [f1417a71] (00/58) No match (V2 was not tested)
08 [02cae9c5] (00/56) No match (V2 was not tested)

Track Peak [ CRC32 ] [W/O NULL] [ LOG ]
-- 96,7 [DFE2AFFB] [915ADA9A]
01 96,7 [3D6AEC4C] [8C43DD51] CRC32
02 82,1 [53D0695F] [0B05D9EF] CRC32
03 96,7 [F752DFA0] [8C26EF6C] CRC32
04 96,7 [5F6B84E6] [9DAABCEE] CRC32
05 96,5 [4AE0AAF5] 33C3217 CRC32
06 96,7 [960A5D45] [544845A6] CRC32
07 78,9 [847A4CF5] [3498B370] CRC32
08 96,7 [9DE00D56] [89E53CFC] CRC32

Yes - House Of Yes: Live From House Of Blues (2000) [2CD + DVD]

Tracklist CD2:

01. It Will Be A Good Day (The River) (6:29)
02. Face To Face (5:32)
03. Awaken (17:35)
04. Your Move/I've Seen All Good People (7:28)
05. Cinema (1:58)
06. Owner Of A Lonely Heart (6:04)
07. Roundabout (7:40)

Exact Audio Copy V0.99 prebeta 5 from 4. May 2009

EAC extraction logfile from 9. June 2009, 3:11

Yes / House Of Yes Live From House Of Blues Disc Two

Used drive : _NEC DVD_RW ND-2500A Adapter: 0 ID: 1

Read mode : Secure
Utilize accurate stream : Yes
Defeat audio cache : Yes
Make use of C2 pointers : No

Read offset correction

: 48
Overread into Lead-In and Lead-Out : No
Fill up missing offset samples with silence : Yes
Delete leading and trailing silent blocks : No
Null samples used in CRC calculations : Yes
Used interface
: Native Win32 interface for Win NT & 2000
Gap handling
: Appended to previous track

Used output format : User Defined Encoder
Selected bitrate : 128 kBit/s
Quality : High
Add ID3 tag : No
Command line compressor : C:\Program Files\Utilities\EAC\FLAC\FLAC.EXE
Additional command line options : -V -8 -T "artist=%a" -T "title=%t" -T "album=%g" -T "date=%y" -T "tracknumber=%n" -T "genre=%m" %s

TOC of the extracted CD Track | Start | Length | Start sector | End sector
1 | 0:00.00 | 6:29.25 | 0 | 29199 2 | 6:29.25 | 5:32.12 | 29200 | 54111 3 | 12:01.37 | 17:34.48 | 54112 | 133209 4 | 29:36.10 | 7:27.65 | 133210 | 166799 5 | 37:04.00 | 1:57.60 | 166800 | 175634 6 | 39:01.60 | 6:04.00 | 175635 | 202934 7 | 45:05.60 | 7:40.35 | 202935 | 237469

Track 1 Filename D:\EAC Rips\01 - It Will Be A Good Day (The River).wav Pre-gap length 0:00:02.00 Peak level 97.7 %
Track quality 99.9 %
Test CRC 75DC38EA
Copy CRC 75DC38EA
Accurately ripped (confidence 13) [4ABAB447]
Copy OK

Track 2 Filename D:\EAC Rips\02 - Face To Face.wav Peak level 97.9 %
Track quality 99.9 %
Test CRC F0562F5D
Copy CRC F0562F5D
Accurately ripped (confidence 13) [057F0DB3]
Copy OK

Track 3 Filename D:\EAC Rips\03 - Awaken.wav Peak level 97.7 %
Track quality 99.9 %
Test CRC B6D95BEB
Copy CRC B6D95BEB
Accurately ripped (confidence 13) [D700C40C]
Copy OK

Track 4 Filename D:\EAC Rips\04 - Your Move,I'Ve Seen All Good People.wav Peak level 97.7 %
Track quality 99.9 %
Test CRC C1E07A5C
Copy CRC C1E07A5C
Accurately ripped (confidence 13) [0338DA93]
Copy OK

Track 5 Filename D:\EAC Rips\05 - Cinema.wav Peak level 97.0 %
Track quality 100.0 %
Test CRC 650C2254
Copy CRC 650C2254
Accurately ripped (confidence 13) [900E6195]
Copy OK

Track 6 Filename D:\EAC Rips\06 - Owner Of A Lonely Heart.wav Peak level 97.9 %
Track quality 100.0 %
Test CRC 81EE9055
Copy CRC 81EE9055
Accurately ripped (confidence 13) [6AFA6298]
Copy OK

Track 7 Filename D:\EAC Rips\07 - Roundabout.wav Peak level 97.9 %
Track quality 100.0 %
Test CRC F4C4D403
Copy CRC F4C4D403
Accurately ripped (confidence 13) [C0278CAD]
Copy OK

All tracks accurately ripped

No errors occurred

End of status report

foobar2000 1.2.9 / Dynamic Range Meter 1.1.1
log date: 2015-06-14 13:57:17

------
Analyzed: Yes / House Of Yes - Live From House Of Blues . Disc Two
------

DR Peak RMS Duration Track
------
DR8 -0.20 dB -10.64 dB 6:29 01-It Will Be A Good Day (The River)
DR7 -0.18 dB -9.26 dB 5:32 02-Face To Face
DR8 -0.20 dB -11.20 dB 17:35 03-Awaken
DR8 -0.20 dB -9.72 dB 7:28 04-Your Move/I've Seen All Good People
DR8 -0.26 dB -8.52 dB 1:58 05-Cinema
DR7 -0.18 dB -8.72 dB 6:04 06-Owner Of A Lonely Heart
DR7 -0.18 dB -8.90 dB 7:40 07-Roundabout
------

Number of tracks: 7
Official DR value: DR7

Samplerate: 44100 Hz
Channels: 2
Bits per sample: 16
Bitrate: 1014 kbps
Codec: FLAC

[CUETools log; Date: 14.06.2015 13:57:18; Version: 2.1.4]
HDCD: peak extend: yes, transient filter: some, gain: none
[CTDB TOCID: OboTyUonB2MdxeVmJVDCe6VPoBQ-] found.
Track | CTDB Status
1 | (19/19) Accurately ripped
2 | (19/19) Accurately ripped
3 | (19/19) Accurately ripped
4 | (19/19) Accurately ripped
5 | (19/19) Accurately ripped
6 | (19/19) Accurately ripped
7 | (19/19) Accurately ripped
[AccurateRip ID: 000f3fc2-005af7dc-5a0c5e07] found.
Track [ CRC | V2 ] Status
01 [4abab447|93e4b026] (35+23/58) Accurately ripped
02 [057f0db3|2189d207] (35+23/58) Accurately ripped
03 [d700c40c|dcde3bef] (34+23/57) Accurately ripped
04 [0338da93|d46c8358] (34+23/57) Accurately ripped
05 [900e6195|c2e82ec8] (35+23/58) Accurately ripped
06 [6afa6298|2810ae14] (35+23/58) Accurately ripped
07 [c0278cad|6d9d56de] (35+23/58) Accurately ripped
Offsetted by -6:
01 [3df12423] (00/58) No match (V2 was not tested)
02 [12d25c2b] (00/58) No match (V2 was not tested)
03 [0e2d64de] (00/57) No match (V2 was not tested)
04 cb56e11 (00/57) No match (V2 was not tested)
05 [544d2122] (00/58) No match (V2 was not tested)
06 [9c642e2d] (00/58) No match (V2 was not tested)
07 [46b78053] (00/58) No match (V2 was not tested)

Track Peak [ CRC32 ] [W/O NULL] [ LOG ]
-- 97,9 [C76B2228] [50CB6655]
01 97,7 [75DC38EA] [4A25815D] CRC32
02 97,9 [F0562F5D] 9632CE8 CRC32
03 97,7 6D95BEB [13FF5247] CRC32
04 97,7 [C1E07A5C] [9F14118E] CRC32
05 97,0 [650C2254] 83C54DF CRC32
06 97,9 [81EE9055] [CCA76DAB] CRC32
07 97,9 [F4C4D403] [799F37B6] CRC32

Yes - House Of Yes: Live From House Of Blues (2000) [2CD + DVD]

Tracklist DVD:

1. Yours Is No Disgrace
2. Time And A Word
3. Homeworld (The Ladder)
4. Perpetual Change
5. Lightning Strikes
6. The Messenger
7. Ritual-Nous Sommes Du Soleil
8. And You And I
9. It Will Be A Good Day (The River)
10. Face To Face
11. Awaken
12. Your Move / I've Seen All Good People
13. Cinema
14. Owner Of A Lonely Heart
15. Roundabout

Title: Yes 2000 - House Of Yes - Live From House Of Blues - DVD
Size: 7.12 Gb ( 7469748,00 KBytes ) - DVD-9
Enabled regions: 1, 2, 3, 4, 5, 6, 7, 8

VTS_01 :
Play Length: 00:00:29
Video: PAL 4:3 (720x576) VBR
Audio:
English (Dolby AC3, 2 ch)
English (Dolby AC3, 2 ch)

VTS_02 :
Play Length: 00:00:09
Video: PAL 4:3 (720x576) VBR
Audio:
English (Dolby AC3, 1 ch)
English (Dolby AC3, 1 ch)

VTS_03 :
Play Length: 01:52:11
Video: PAL 4:3 (720x576) VBR
Audio:
English (Dolby AC3, 6 ch)
English (Dolby AC3, 2 ch)

VTS_04 :
Play Length: 00:09:40
Video: PAL 4:3 (720x576) VBR
Audio:
English (Dolby AC3, 6 ch)
English (Dolby AC3, 6 ch)

VTS_05 :
Play Length: 00:12:33
Video: PAL 4:3 (720x576) VBR
Audio:
English (Dolby AC3, 2 ch)
English (Dolby AC3, 2 ch)

VTS_06 :
Play Length: 00:00:09
Video: PAL 4:3 (720x576) VBR
Audio:
English (Dolby AC3, 2 ch)
English (Dolby AC3, 2 ch)

Yes - House Of Yes: Live From House Of Blues (2000) [2CD + DVD]

Yes - House Of Yes: Live From House Of Blues (2000) [2CD + DVD]

Yes - House Of Yes: Live From House Of Blues (2000) [2CD + DVD]

Yes - House Of Yes: Live From House Of Blues (2000) [2CD + DVD]

Yes - House Of Yes: Live From House Of Blues (2000) [2CD + DVD]

Yes - House Of Yes: Live From House Of Blues (2000) [2CD + DVD]

DOWNLOAD LINKS:
(Premium Recommended)


All above links are interchangable. No password

Direct Download

Yes - House Of Yes: Live From House Of Blues (2000) [2CD + DVD] Download via Hotfile Rapidshare Fileserve Megaupload & FileSonic, Yes - House Of Yes: Live From House Of Blues (2000) [2CD + DVD] free torrent downloads included crack, serial, keygen.


Attention!Information

Members of Guest cannot leave comments.