Albert Wynn & His Gutbucket Seven - Chicago: The Living Legends (1961)

Download Now

Albert Wynn & His Gutbucket Seven - Chicago: The Living Legends (1961)

Albert Wynn & His Gutbucket Seven - Chicago: The Living Legends (1961)
EAC Rip | FLAC with CUE and log @ 278mb | scans
MP3 @ 117mb | CBR 320kbps | RAR
Genre: jazz

Chicago: The Living Legends is a 1961 album by Albert Wynn & His Gutbucket Seven. The album was originally released in 1961 on Riverside Records. This 1993 CD edition features two bonus tracks not on the original album.
Albert Wynn & His Gutbucket Seven - Chicago: The Living Legends (1961)

01. Ice Cream
02. Someday Sweetheart
03. How Long Blues
04. Honey
05. Bourbon Street
06. The World Is Waiting For The Sunrise
07. In The Evening
08. Nobody's Sweetheart
09. I Ain't Gonna Give Nobody None O' This Jelly Roll
10. How Long Blues (Alternate)

Albert Wynn & His Gutbucket Seven - Chicago: The Living Legends (1961)



EAC extraction logfile from 4. March 2007, 20:58 for CD
Albert Wynn & His Gutbucket Seven / Chicago: The Living Legends

Used drive : LITE-ON DVDRW SOHW-1633S Adapter: 0 ID: 0
Read mode : Secure with NO C2, accurate stream, disable cache
Read offset correction : 12
Overread into Lead-In and Lead-Out : No

Used output format : Internal WAV Routines 44.100 Hz; 16 Bit; Stereo

Other options :
Fill up missing offset samples with silence : Yes
Delete leading and trailing silent blocks : No
Installed external ASPI interface

Track 1
Filename D:\FLAC\Albert Wynn & His Gutbucket Seven - Chicago, The Living Legends (1961) [FLAC]\01 - Ice Cream.wav Pre-gap length 0:00:02.00 Peak level 99.9 %
Track quality 100.0 %
Test CRC 72AE52A7
Copy CRC 72AE52A7
Copy OK

Track 2
Filename D:\FLAC\Albert Wynn & His Gutbucket Seven - Chicago, The Living Legends (1961) [FLAC]\02 - Someday Sweetheart.wav Pre-gap length 0:00:03.93 Peak level 93.0 %
Track quality 99.9 %
Test CRC 3BB5B610
Copy CRC 3BB5B610
Copy OK

Track 3
Filename D:\FLAC\Albert Wynn & His Gutbucket Seven - Chicago, The Living Legends (1961) [FLAC]\03 - How Long Blues.wav Pre-gap length 0:00:03.13 Peak level 100.0 %
Track quality 100.0 %
Test CRC 030949BE
Copy CRC 030949BE
Copy OK

Track 4
Filename D:\FLAC\Albert Wynn & His Gutbucket Seven - Chicago, The Living Legends (1961) [FLAC]\04 - Honey.wav Pre-gap length 0:00:03.24 Peak level 100.0 %
Track quality 100.0 %
Test CRC 9DA66F7F
Copy CRC 9DA66F7F
Copy OK

Track 5
Filename D:\FLAC\Albert Wynn & His Gutbucket Seven - Chicago, The Living Legends (1961) [FLAC]\05 - Bourbon Street.wav Pre-gap length 0:00:02.80 Peak level 100.0 %
Track quality 100.0 %
Test CRC B553BF63
Copy CRC B553BF63
Copy OK

Track 6
Filename D:\FLAC\Albert Wynn & His Gutbucket Seven - Chicago, The Living Legends (1961) [FLAC]\06 - The World Is Waiting For The Sunrise.wav Pre-gap length 0:00:02.86 Peak level 100.0 %
Track quality 100.0 %
Test CRC BC46F4E1
Copy CRC BC46F4E1
Copy OK

Track 7
Filename D:\FLAC\Albert Wynn & His Gutbucket Seven - Chicago, The Living Legends (1961) [FLAC]\07 - In The Evening.wav Pre-gap length 0:00:02.80 Peak level 86.1 %
Track quality 100.0 %
Test CRC 5838177A
Copy CRC 5838177A
Copy OK

Track 8
Filename D:\FLAC\Albert Wynn & His Gutbucket Seven - Chicago, The Living Legends (1961) [FLAC]\08 - Nobody's Sweetheart.wav Pre-gap length 0:00:02.16 Peak level 99.8 %
Track quality 100.0 %
Test CRC 2235AB14
Copy CRC 2235AB14
Copy OK

Track 9
Filename D:\FLAC\Albert Wynn & His Gutbucket Seven - Chicago, The Living Legends (1961) [FLAC]\09 - I Ain't Gonna Give Nobody None O' This Jelly Roll.wav Pre-gap length 0:00:02.06 Peak level 100.0 %
Track quality 100.0 %
Test CRC C209AA52
Copy CRC C209AA52
Copy OK

Track 10
Filename D:\FLAC\Albert Wynn & His Gutbucket Seven - Chicago, The Living Legends (1961) [FLAC]\10 - How Long Blues (Alternate).wav Pre-gap length 0:00:02.66 Peak level 99.6 %
Track quality 100.0 %
Test CRC 1496CEA6
Copy CRC 1496CEA6
Copy OK

No errors occured

End of status report
Download Links:
(Premium Recommended)


All above links are interchangable. No password

Direct Download

Tags: Albert, Gutbucket, Chicago, Living, Legends

Albert Wynn & His Gutbucket Seven - Chicago: The Living Legends (1961) Download via Hotfile Rapidshare Fileserve Megaupload & FileSonic, Albert Wynn & His Gutbucket Seven - Chicago: The Living Legends (1961) free torrent downloads included crack, serial, keygen.


Attention!Information

Members of Guest cannot leave comments.