David Glen Eisley - Stranger From The Past (2000)

Download Now

David Glen Eisley - Stranger From The Past (2000)

David Glen Eisley - Stranger From The Past (2000)
EAC Rip | FLAC: Image+Cue+Log | 473 Mb | MP3 CBR 320 kbps | 176 Mb | Scans | Time: 58:00
Genre: Hard Rock, AOR | Label: CD-Maximum | Cat.№: CDM 0901-709

"The voice of Guiffria. Giuffria has released two records with this singer, before Gregg Giuffria left the band and creates House Of Lords. Stranger From The Past, David Glen Eisley's solo album, is a truly rock record. From first to third track, Eisley's songs is full of melody and with fast rock songs compare to the whole record (we are speaking of soft hard rock "à la" Night Ranger)."



Track Listing

01. (The Return) (02:10)
02. Stranger From The Past (04:50)
03. Can't Call It Love (05:24)
04. Run, Run, Run (04:07)
05. Sing Brother (06:06)
06. Don't Turn Away (04:57)
07. Who You Tryin To Fool (05:09)
08. Stranger In Love (05:04)
09. Can't Wait Forever (05:27)
10. When It's Over (04:49)
11. Olivia (04:20)
12. Waiting On Heaven (05:03)
13. (Departure) (00:29)

Produced by David Glen Eisley

Musicians

* David Glen Eisley - vocals, keys, guitars, bass, drums
* Stephan Ellis (Survivor) - bass (3, 7)
* Craig Goldie (Dio) - lead guitar (1, 2, 4, 5, 6, 7, 9, 10, 12)
* Ricky Philips (Bad English) - bass (6)
* Pat Regan (Iain Ashley Hersey) - Hammond solo & strings (3)
* Eric Riggler (Young Dubliners, Bad Haggis, Alasdair Fraser, Skyedance) - uilleann pipes (1, 13)
* Ron Whykso (Foreigner) - drums (all tracks except trk 6)
* Chuck Wright (Guiffria, Quiet Riot) - bass (2, 4, 5, 9, 10, 12)
* India Joy Eisley - door slam (3)

David Glen Eisley - Stranger From The Past (2000)



Exact Audio Copy V0.99 prebeta 5 from 4. May 2009

EAC extraction logfile from 7. January 2010, 15:17

David Glen Eisley / Stranger From The Past

Used drive : PIONEER DVD-RW DVR-215D Adapter: 3 ID: 0

Read mode : Secure
Utilize accurate stream : Yes
Defeat audio cache : Yes
Make use of C2 pointers : No

Read offset correction

: 48
Overread into Lead-In and Lead-Out : No
Fill up missing offset samples with silence : Yes
Delete leading and trailing silent blocks : No
Null samples used in CRC calculations : Yes
Used interface
: Native Win32 interface for Win NT & 2000

Used output format : User Defined Encoder
Selected bitrate : 768 kBit/s
Quality : High
Add ID3 tag : No
Command line compressor : C:\Program Files\Exact Audio Copy\FLAC\FLAC.EXE
Additional command line options : -8 -V %s

TOC of the extracted CD Track | Start | Length | Start sector | End sector
1 | 0:00.00 | 2:10.15 | 0 | 9764 2 | 2:10.15 | 4:50.10 | 9765 | 31524 3 | 7:00.25 | 5:24.37 | 31525 | 55861 4 | 12:24.62 | 4:07.65 | 55862 | 74451 5 | 16:32.52 | 6:06.18 | 74452 | 101919 6 | 22:38.70 | 4:57.17 | 101920 | 124211 7 | 27:36.12 | 5:09.20 | 124212 | 147406 8 | 32:45.32 | 5:04.68 | 147407 | 170274 9 | 37:50.25 | 5:27.02 | 170275 | 194801
10 | 43:17.27 | 4:49.53 | 194802 | 216529
11 | 48:07.05 | 4:20.52 | 216530 | 236081
12 | 52:27.57 | 5:03.15 | 236082 | 258821
13 | 57:30.72 | 0:29.13 | 258822 | 261009

Range status and errors

Selected range Filename C:\lossless\my Rips\David Glen Eisley\Stranger From The Past\David Glen Eisley - Stranger From The Past.wav Peak level 100.0 %
Range quality 100.0 %
Test CRC 454D025C
Copy CRC 454D025C
Copy OK

No errors occurred


AccurateRip summary

Track 1 cannot be verified as accurate (confidence 2) [28FC16FF], AccurateRip returned [AD109D06]
Track 2 cannot be verified as accurate (confidence 2) [845D4C51], AccurateRip returned [C29F6718]
Track 3 cannot be verified as accurate (confidence 2) [9472F2FA], AccurateRip returned [CAA5DA3D]
Track 4 cannot be verified as accurate (confidence 2) [9D2A7651], AccurateRip returned [1ED78A61]
Track 5 cannot be verified as accurate (confidence 2) [A1F15CCB], AccurateRip returned [79694EA3]
Track 6 cannot be verified as accurate (confidence 2) [12CF3F09], AccurateRip returned [26A9F589]
Track 7 cannot be verified as accurate (confidence 2) [FD587A94], AccurateRip returned [EA6A89BC]
Track 8 cannot be verified as accurate (confidence 2) [106C5048], AccurateRip returned [3EFE8188]
Track 9 cannot be verified as accurate (confidence 2) [86B112B8], AccurateRip returned [61D04170]
Track 10 cannot be verified as accurate (confidence 2) [41A7E0E4], AccurateRip returned [2E75D09C]
Track 11 cannot be verified as accurate (confidence 2) 39AC3E2, AccurateRip returned [A40F988A]
Track 12 cannot be verified as accurate (confidence 2) [2A458341], AccurateRip returned [D02D95EB]
Track 13 cannot be verified as accurate (confidence 2) 137BDAD, AccurateRip returned CB2095C

No tracks could be verified as accurate
You may have a different pressing from the one(s) in the database

End of status report

Many thanks to the original uploader: boets
Download:
Buy Premium To Support Me & Get Resumable Support & Max Speed


Links are Interchangeable - No Password

Direct Download

Tags: Eisley, Stranger

David Glen Eisley - Stranger From The Past (2000) Download via Hotfile Rapidshare Fileserve Megaupload & FileSonic, David Glen Eisley - Stranger From The Past (2000) free torrent downloads included crack, serial, keygen.


Attention!Information

Members of Guest cannot leave comments.