Ulf Lundell - Trunk (2013)

Download Now

Ulf Lundell - Trunk (2013)

Ulf Lundell - Trunk (2013)
EAC Rip | FLAC (image & cue & log) | 476 MB | MP3 CBR 320 kbps | 182 MB | Scans | 61:41
Genre: Rock / Melodic Rock | Country: Sweden | Label: Parlophone | 5053105077526

"Ulf Lundell is a Swedish writer, poet, songwriter, composer, musician and artist.He made his debut in 1975 with the LP Vargmåne and was immediately hailed as "Sweden's Bob Dylan". In 1976 his first novel, the partly autobiographical Jack was published by Wahlström & Widstrand. Lundell was influenced by musicians such as Bob Dylan, Bruce Springsteen, Neil Young and writers such as Jack Kerouac, Allen Ginsberg and other beats."



Tracklist:

01. Vi är inte arbetslösa 03:50
02. När vi var kungar 05:26
03. Det går som smort 04:00
04. Som En Fyr I Natten 05:01
05. Poker I Karibien 05:45
06. L-Bows and Kash 04:53
07. 63 I November 07:23
08. Gå på tvärs 03:52
09. Fritt Fall 03:59
10. Kom Hem Igen 06:13
11. El Perro 05:49
12. Jag Vill Ha Fest 05:28

Exact Audio Copy V1.0 beta 3 from 29. August 2011

EAC extraction logfile from 30. November 2013, 12:11

Ulf Lundell / Trunk

Used drive : PLEXTOR CD-R PREMIUM2 Adapter: 0 ID: 1

Read mode : Secure
Utilize accurate stream : Yes
Defeat audio cache : Yes
Make use of C2 pointers : No

Read offset correction

: 30
Overread into Lead-In and Lead-Out : Yes
Fill up missing offset samples with silence : Yes
Delete leading and trailing silent blocks : No
Null samples used in CRC calculations : Yes
Used interface
: Native Win32 interface for Win NT & 2000
Gap handling
: Appended to previous track

Used output format : User Defined Encoder
Selected bitrate : 128 kBit/s
Quality : High
Add ID3 tag : No
Command line compressor : C:\Program Files (x86)\Exact Audio Copy\Flac\flac.exe
Additional command line options : -5 -V -T "ARTIST=%artist%" -T "TITLE=%title%" -T "ALBUM=%albumtitle%" -T "DATE=%year%" -T "TRACKNUMBER=%tracknr%" -T "TOTALTRACKS=%numtracks%" -T "GENRE=%genre%" -T "ALBUMARTIST=%albumartist%" -T "ALBUM ARTIST=%albumartist%" -T "COMMENT=EAC V1.0 beta 3, Secure Mode, Test & Copy, AccurateRip, FLAC 1.2.1b -5" %source%

TOC of the extracted CD Track | Start | Length | Start sector | End sector
1 | 0:00.00 | 3:50.33 | 0 | 17282 2 | 3:50.33 | 5:25.50 | 17283 | 41707 3 | 9:16.08 | 4:00.03 | 41708 | 59710 4 | 13:16.11 | 5:01.03 | 59711 | 82288 5 | 18:17.14 | 5:45.35 | 82289 | 108198 6 | 24:02.49 | 4:53.17 | 108199 | 130190 7 | 28:55.66 | 7:23.35 | 130191 | 163450 8 | 36:19.26 | 3:52.31 | 163451 | 180881 9 | 40:11.57 | 3:58.55 | 180882 | 198786
10 | 44:10.37 | 6:13.34 | 198787 | 226795
11 | 50:23.71 | 5:48.53 | 226796 | 252948
12 | 56:12.49 | 5:28.04 | 252949 | 277552

Track 1 Filename E:\crocas rip pc1\Ulf Lundell - Trunk (2013) [FLAC]\01 - Vi Ar Inte Arbetslosa.wav Pre-gap length 0:00:02.00 Peak level 98.8 %
Extraction speed 2.4 X
Track quality 100.0 %
Test CRC 45EE9C22
Copy CRC 45EE9C22
Track not present in AccurateRip database
Copy OK

Track 2 Filename E:\crocas rip pc1\Ulf Lundell - Trunk (2013) [FLAC]\02 - Nar Vi Var Kungar.wav Peak level 98.8 %
Extraction speed 2.3 X
Track quality 99.9 %
Test CRC FAD45574
Copy CRC FAD45574
Track not present in AccurateRip database
Copy OK

Track 3 Filename E:\crocas rip pc1\Ulf Lundell - Trunk (2013) [FLAC]\03 - Det Gar Som Smort.wav Peak level 98.8 %
Extraction speed 2.1 X
Track quality 99.9 %
Test CRC 3DEABF7F
Copy CRC 3DEABF7F
Track not present in AccurateRip database
Copy OK

Track 4 Filename E:\crocas rip pc1\Ulf Lundell - Trunk (2013) [FLAC]\04 - Som En Fyr I Natten.wav Peak level 98.8 %
Extraction speed 2.5 X
Track quality 100.0 %
Test CRC 723F4D88
Copy CRC 723F4D88
Track not present in AccurateRip database
Copy OK

Track 5 Filename E:\crocas rip pc1\Ulf Lundell - Trunk (2013) [FLAC]\05 - Poker I Karibien.wav Peak level 98.8 %
Extraction speed 2.6 X
Track quality 100.0 %
Test CRC 43E3EA53
Copy CRC 43E3EA53
Track not present in AccurateRip database
Copy OK

Track 6 Filename E:\crocas rip pc1\Ulf Lundell - Trunk (2013) [FLAC]\06 - L-bows & Kash.wav Peak level 98.8 %
Extraction speed 2.5 X
Track quality 100.0 %
Test CRC 1C99BE63
Copy CRC 1C99BE63
Track not present in AccurateRip database
Copy OK

Track 7 Filename E:\crocas rip pc1\Ulf Lundell - Trunk (2013) [FLAC]\07 - 63 I November.wav Peak level 98.8 %
Extraction speed 2.6 X
Track quality 100.0 %
Test CRC 4A0086F7
Copy CRC 4A0086F7
Track not present in AccurateRip database
Copy OK

Track 8 Filename E:\crocas rip pc1\Ulf Lundell - Trunk (2013) [FLAC]\08 - Ga Pa Tvars.wav Peak level 98.8 %
Extraction speed 2.1 X
Track quality 99.9 %
Test CRC 3EBE5A1B
Copy CRC 3EBE5A1B
Track not present in AccurateRip database
Copy OK

Track 9 Filename E:\crocas rip pc1\Ulf Lundell - Trunk (2013) [FLAC]\09 - Fritt Fall.wav Peak level 98.8 %
Extraction speed 2.1 X
Track quality 99.9 %
Test CRC B4B2F255
Copy CRC B4B2F255
Track not present in AccurateRip database
Copy OK

Track 10 Filename E:\crocas rip pc1\Ulf Lundell - Trunk (2013) [FLAC]\10 - Kom Hem Igen.wav Peak level 98.8 %
Extraction speed 2.3 X
Track quality 99.9 %
Test CRC 7C19AEF6
Copy CRC 7C19AEF6
Track not present in AccurateRip database
Copy OK

Track 11 Filename E:\crocas rip pc1\Ulf Lundell - Trunk (2013) [FLAC]\11 - El Perro.wav Peak level 98.8 %
Extraction speed 2.6 X
Track quality 100.0 %
Test CRC ACC2F11F
Copy CRC ACC2F11F
Track not present in AccurateRip database
Copy OK

Track 12 Filename E:\crocas rip pc1\Ulf Lundell - Trunk (2013) [FLAC]\12 - Jag Vill Ha Fest.wav Peak level 98.8 %
Extraction speed 2.6 X
Track quality 100.0 %
Test CRC 399E345B
Copy CRC 399E345B
Track not present in AccurateRip database
Copy OK

None of the tracks are present in the AccurateRip database

No errors occurred

End of status report

==== Log checksum D7539BBD60A58638D85BFE82B295BFDEB80C1B7AB591D8D7820F0850CBEEAA51 ====

Personnel

Ulf Lundell - vocals, guitar, composer, lyricist
Janne Bark - guitar
Jens Frithiof - guitar
Surjo Benigh - bass
Andreas Dahlbäck - drums, percussion
Marcus Olsson - synthesizer, keyboard, saxophone, piano, organ

All thanks to vinylking

Ulf Lundell - Trunk (2013)

Ulf Lundell - Trunk (2013)


DOWNLOAD LINKS:
Buy Premium To Support Me & Get Resumable Support & Max Speed


Links are Interchangeable - No Password - Single Extraction

Direct Download

Tags: Lundell

Ulf Lundell - Trunk (2013) Download via Hotfile Rapidshare Fileserve Megaupload & FileSonic, Ulf Lundell - Trunk (2013) free torrent downloads included crack, serial, keygen.


Attention!Information

Members of Guest cannot leave comments.