Cain's Offering - Stormcrow (2015) [Japanese Ed.]

Download Now

Cain's Offering - Stormcrow (2015) [Japanese Ed.]

Cain's Offering - Stormcrow (2015) [Japanese Ed.]
EAC Rip | FLAC: Image+Cue+Log | 499 Mb | MP3 CBR 320 kbps | 161 Mb | Scans | 56 Mb | Time: 01:03:06
Genre: Power Metal | Label: Marquee Inc./Avalon | Cat.№: MICP-11215

""Stormcrow" is the second album by Finnish power metal supergroup Cain's Offering, released on 15 May 2015. It is their first album with keyboardist Jens Johansson (Stratovarius, ex-Yngwie Malmsteen) and bassist Jonas Kuhlberg. "Stormcrow" is a tour-de-force of who's-who in the Finnish heavy metal scene, and yes, this does sound like a wet dream come through for all fans of melodic Heavy Metal. And guess what - the final result is going to blow you away as this album melts the best of SONATA ARCTICA and STRATOVARIUS in a new, exciting and powerful sound!"



Track Listing

01. Stormcrow (06:16)
02. The Best Of Times (04:33)
03. A Night To Forget (04:27)
04. I Will Build You A Rome (04:42)
05. Too Tired To Run (06:13)
06. Constellation Of Tears (05:31)
07. Antemortem (05:18)
08. My Heart Beats For No One (04:37)
09. I Am Legion (05:59)
10. Rising Sun (05:40)
11. On The Shore (04:22)
12. Child Of The Wild (Bonus track for Japan) (05:23)

Produced by Jani Liimatainen

The Band

* Timo Kotipelto (Kotipelto, Stratovarius) - vocals
* Jani Liimatainen (Sonata Arctica, Altaria) - guitars, keyboards, programming, vocals (backing, choirs)
* Jens Johansson (Johansson, The Johansson Brothers, Mastermind, Stratovarius, Dave Nerge's Bulldog, Dio, Silver Mountain, Snake Charmer, Stephen Ross, Yngwie J. Malmsteen) - keyboards
* Jonas Kuhlberg - bass
* Jani "Hurtsi" Hurula (Isäntä Meidän) - drums

Additional musicians

* Antti Railio - vocals (backing, choirs)
* Petri Aho - vocals (backing, choirs)

Cain's Offering - Stormcrow (2015) [Japanese Ed.]



Exact Audio Copy V1.0 beta 3 from 29. August 2011

EAC extraction logfile from 5. May 2015, 12:55

Cain's Offering / Stormcrow

Used drive : ATAPI iHAS122 W Adapter: 2 ID: 0

Read mode : Secure
Utilize accurate stream : Yes
Defeat audio cache : Yes
Make use of C2 pointers : No

Read offset correction

: 48
Overread into Lead-In and Lead-Out : No
Fill up missing offset samples with silence : Yes
Delete leading and trailing silent blocks : No
Null samples used in CRC calculations : Yes
Used interface
: Installed external ASPI interface

Used output format : User Defined Encoder
Selected bitrate : 1024 kBit/s
Quality : High
Add ID3 tag : No
Command line compressor : C:\Program Files\FLAC\flac.exe
Additional command line options : -V -8 -T "Date=%year%" -T "Genre=%genre%" -T"COMMENT=Ripped by Ilijan" -8 -V %source%

TOC of the extracted CD Track | Start | Length | Start sector | End sector
1 | 0:00.00 | 6:16.22 | 0 | 28221 2 | 6:16.22 | 4:33.52 | 28222 | 48748 3 | 10:49.74 | 4:27.42 | 48749 | 68815 4 | 15:17.41 | 4:42.57 | 68816 | 90022 5 | 20:00.23 | 6:13.00 | 90023 | 117997 6 | 26:13.23 | 5:31.70 | 117998 | 142892 7 | 31:45.18 | 5:18.05 | 142893 | 166747 8 | 37:03.23 | 4:37.40 | 166748 | 187562 9 | 41:40.63 | 5:59.35 | 187563 | 214522
10 | 47:40.23 | 5:40.00 | 214523 | 240022
11 | 53:20.23 | 4:22.00 | 240023 | 259672
12 | 57:42.23 | 5:23.03 | 259673 | 283900

Range status and errors

Selected range Filename D:\ИЛИЯН\Cain's Offering - Stormcrow.wav Peak level 100.0 %
Extraction speed 4.0 X
Range quality 100.0 %
Test CRC 43D3A5AE
Copy CRC 43D3A5AE
Copy OK

No errors occurred


AccurateRip summary

Track 1 not present in database
Track 2 not present in database
Track 3 not present in database
Track 4 not present in database
Track 5 not present in database
Track 6 not present in database
Track 7 not present in database
Track 8 not present in database
Track 9 not present in database
Track 10 not present in database
Track 11 not present in database
Track 12 not present in database

None of the tracks are present in the AccurateRip database

End of status report

---- CUETools DB Plugin V2.1.3

[CTDB TOCID: 978YHATxKzW4u5dC9ccEgmMXTkA-] found, Submit result: 978YHATxKzW4u5dC9ccEgmMXTkA- has been confirmed
[aea77adf] (4/5) Accurately ripped
[02d6bec0] (1/5) No match

==== Log checksum 567A5CDF218C37051440ED490A16C518B8A6DF9887602219789DB6407C996799 ====
DOWNLOAD LINKS:
Buy Premium To Support Me & Get Resumable Support & Max Speed


Links are Interchangeable - No Password - Single Extraction

Direct Download

Tags: Offering, Stormcrow, Japanese

Cain's Offering - Stormcrow (2015) [Japanese Ed.] Download via Hotfile Rapidshare Fileserve Megaupload & FileSonic, Cain's Offering - Stormcrow (2015) [Japanese Ed.] free torrent downloads included crack, serial, keygen.


Attention!Information

Members of Guest cannot leave comments.