Hot Tuna - Hoppkorv (1976) [Japanese Reissue, 2008]

Download Now

Hot Tuna - Hoppkorv (1976) [Japanese Reissue, 2008]

Hot Tuna - Hoppkorv (1976) [Japanese Reissue, 2008]
EAC Rip | FLAC: Tracks+Cue+Log | 263 Mb | MP3 CBR 320 kbps | 96 Mb | Scans | 34 Mb | Time: 36:10
Genre: Rock, Blues Rock | Label: BMG Japan, Inc. | Cat.№: BVCM-35465

"Hoppkorv was the seventh album by the American blues rock band Hot Tuna, and their last studio album recorded for Grunt Records, as Grunt BFL1-1920. Unlike previous albums, Hot Tuna relied entirely on an outside producer for this effort, Harry Maslin. In addition to four new original songs by Jorma Kaukonen and one by Nick Buck, the album includes covers of Buddy Holly's "It's So Easy", Muddy Waters' "I Can't Be Satisfied", and Chuck Berry's "Talkin' 'Bout You." The album had its highest peak at #116 on the Billboard charts."



Track Listing

01. Santa Claus Retreat (04:09)
02. Watch The North Wind Rise (04:38)
03. It's So Easy (02:34)
04. Bowlegged Woman, Knock-Kneed Man (03:06)
05. Drivin' Around (02:53)
06. I Wish You Would (03:16)
07. I Can't Be Satisfied (03:52)
08. Talkin' 'Bout You (03:28)
09. Extrication Love Song (04:13)
10. Song From The Stainless Cymbal (03:57)

Produced by Harry Maslin

The Band

* Jorma Kaukonen - vocals, guitars
* Jack Casady - bass
* Bob Steeler - drums, percussion

Additional personnel

* Nick Buck - keyboards
* John Sherman - 2nd guitar on "Bowlegged Woman, Knock-Kneed Man"
* Karen Tobin - background vocal

Notes

Jefferson Family Original Album Paper Sleeve Collection

2008 Japanese exclusive limited edition 10-track 24-Bit digitally remastered CD album, the 7th longplayer from Jefferson Airplane's Jack Casady and Jorma Kaukonen, originally released in 1976, presented in mini LP-style card sleeve + obi strip.

Exact Audio Copy V0.99 prebeta 4 from 23. January 2008

EAC extraction logfile from 2. October 2008, 11:17

Hot Tuna / Hoppkorv

Used drive : PIONEER DVD-RW DVR-112D Adapter: 0 ID: 1

Read mode : Secure
Utilize accurate stream : Yes
Defeat audio cache : Yes
Make use of C2 pointers : No

Read offset correction

: 48
Overread into Lead-In and Lead-Out : No
Fill up missing offset samples with silence : Yes
Delete leading and trailing silent blocks : No
Null samples used in CRC calculations : Yes
Used interface
: Installed external ASPI interface
Gap handling
: Appended to previous track

Used output format : Internal WAV Routines
Sample format : 44.100 Hz; 16 Bit; Stereo

TOC of the extracted CD Track | Start | Length | Start sector | End sector
1 | 0:00.00 | 4:09.32 | 0 | 18706 2 | 4:09.32 | 4:38.49 | 18707 | 39605 3 | 8:48.06 | 2:34.34 | 39606 | 51189 4 | 11:22.40 | 3:06.11 | 51190 | 65150 5 | 14:28.51 | 2:53.49 | 65151 | 78174 6 | 17:22.25 | 3:16.07 | 78175 | 92881 7 | 20:38.32 | 3:52.25 | 92882 | 110306 8 | 24:30.57 | 3:28.57 | 110307 | 125963 9 | 27:59.39 | 4:13.12 | 125964 | 144950
10 | 32:12.51 | 3:57.11 | 144951 | 162736

Track 1 Filename P:\Hot Tuna\Hoppkorv\01 - Santa Claus Retreat.wav Pre-gap length 0:00:02.00 Peak level 100.0 %
Track quality 100.0 %
Test CRC 0E8ADA29
Copy CRC 0E8ADA29
Track not present in AccurateRip database
Copy OK

Track 2 Filename P:\Hot Tuna\Hoppkorv\02 - Watch the North Wind Rise.wav Pre-gap length 0:00:03.12 Peak level 100.0 %
Track quality 99.9 %
Test CRC C6AC7088
Copy CRC C6AC7088
Track not present in AccurateRip database
Copy OK

Track 3 Filename P:\Hot Tuna\Hoppkorv\03 - It's So Easy.wav Pre-gap length 0:00:03.16 Peak level 100.0 %
Track quality 100.0 %
Test CRC 97D5B686
Copy CRC 97D5B686
Track not present in AccurateRip database
Copy OK

Track 4 Filename P:\Hot Tuna\Hoppkorv\04 - Bowlegged Woman, Knock-Kneed Man.wav Pre-gap length 0:00:02.67 Peak level 100.0 %
Track quality 100.0 %
Test CRC C6B00F6E
Copy CRC C6B00F6E
Track not present in AccurateRip database
Copy OK

Track 5 Filename P:\Hot Tuna\Hoppkorv\05 - Drivin' Around.wav Pre-gap length 0:00:03.13 Peak level 100.0 %
Track quality 99.9 %
Test CRC 0C1A40EF
Copy CRC 0C1A40EF
Track not present in AccurateRip database
Copy OK

Track 6 Filename P:\Hot Tuna\Hoppkorv\06 - I Wish You Would.wav Pre-gap length 0:00:02.45 Peak level 100.0 %
Track quality 100.0 %
Test CRC FD39645B
Copy CRC FD39645B
Track not present in AccurateRip database
Copy OK

Track 7 Filename P:\Hot Tuna\Hoppkorv\07 - I Can't Be Satisfied.wav Pre-gap length 0:00:02.65 Peak level 100.0 %
Track quality 100.0 %
Test CRC A370C6FE
Copy CRC A370C6FE
Track not present in AccurateRip database
Copy OK

Track 8 Filename P:\Hot Tuna\Hoppkorv\08 - Talkin' 'Bout You.wav Pre-gap length 0:00:02.55 Peak level 100.0 %
Track quality 100.0 %
Test CRC 2FDB0F08
Copy CRC 2FDB0F08
Track not present in AccurateRip database
Copy OK

Track 9 Filename P:\Hot Tuna\Hoppkorv\09 - Extrication Love Song.wav Pre-gap length 0:00:02.71 Peak level 100.0 %
Track quality 100.0 %
Test CRC 7A5674E8
Copy CRC 7A5674E8
Track not present in AccurateRip database
Copy OK

Track 10 Filename P:\Hot Tuna\Hoppkorv\10 - Song from the Stainless Cymbal.wav Pre-gap length 0:00:02.49 Peak level 100.0 %
Track quality 100.0 %
Test CRC C0185281
Copy CRC C0185281
Track not present in AccurateRip database
Copy OK

None of the tracks are present in the AccurateRip database

No errors occurred

End of status report

Many thanks to the original uploader: vmsn
DOWNLOAD LINKS:
Buy Premium To Support Me & Get Resumable Support & Max Speed


Links are Interchangeable - No Password - Single Extraction

Direct Download

Tags: Hoppkorv, Japanese, Reissue

Hot Tuna - Hoppkorv (1976) [Japanese Reissue, 2008] Download via Hotfile Rapidshare Fileserve Megaupload & FileSonic, Hot Tuna - Hoppkorv (1976) [Japanese Reissue, 2008] free torrent downloads included crack, serial, keygen.


Attention!Information

Members of Guest cannot leave comments.