Ashley Tisdale - Headstrong (2007)

Download Now

Ashley Tisdale - Headstrong (2007)

Ashley Tisdale - Headstrong (2007)
EAC Rip | FLAC with CUE and log | scans | 361mb
MP3 CBR 320kbps | RAR | 132mb
Genre: pop, dance, R&B

Headstrong is the 2007 debut album by actress Ashley Tisdale, known for her roles in The Suite Life Of Zack & Cody, High School Musical, and Young & Hungry. Headstrong was meant to be her debut as a "grown" artist, released before she turned 21. The album featured the hit song "He Said She Said".
Ashley Tisdale - Headstrong (2007)

01. Intro
02. So Much For You
03. He Said She Said
04. Be Good To Me
05. Not Like That
06. Unlove You
07. Positivity
08. Love Me For Me
09. Goin' Crazy
10. Over It
11. Dont Touch (The Zoom Song)
12. We'll Be Together
13. Headstrong
14. Suddenly

Ashley Tisdale - Headstrong (2007)



EAC extraction logfile from 6. February 2007, 16:13 for CD
Ashley Tisdale / Headstrong

Used drive : LITE-ON DVDRW SOHW-1633S Adapter: 0 ID: 0
Read mode : Secure with NO C2, accurate stream, disable cache
Read offset correction : 12
Overread into Lead-In and Lead-Out : No

Used output format : Internal WAV Routines 44.100 Hz; 16 Bit; Stereo

Other options :
Fill up missing offset samples with silence : Yes
Delete leading and trailing silent blocks : No
Installed external ASPI interface

Track 1
Filename D:\FLAC\Ashley Tisdale - Headstrong (2007) [FLAC]\01 - Intro.wav Pre-gap length 0:00:02.00 Peak level 99.9 %
Track quality 100.0 %
Test CRC 0535F771
Copy CRC 0535F771
Copy OK

Track 2
Filename D:\FLAC\Ashley Tisdale - Headstrong (2007) [FLAC]\02 - So Much For You.wav Peak level 100.0 %
Track quality 100.0 %
Test CRC 0D08AFF0
Copy CRC 0D08AFF0
Copy OK

Track 3
Filename D:\FLAC\Ashley Tisdale - Headstrong (2007) [FLAC]\03 - He Said She Said.wav Peak level 99.9 %
Track quality 100.0 %
Test CRC B1BBCAA4
Copy CRC B1BBCAA4
Copy OK

Track 4
Filename D:\FLAC\Ashley Tisdale - Headstrong (2007) [FLAC]\04 - Be Good To Me.wav Peak level 99.9 %
Track quality 99.9 %
Test CRC 7DF92691
Copy CRC 7DF92691
Copy OK

Track 5
Filename D:\FLAC\Ashley Tisdale - Headstrong (2007) [FLAC]\05 - Not Like That.wav Peak level 99.9 %
Track quality 99.9 %
Test CRC F4D4FCD7
Copy CRC F4D4FCD7
Copy OK

Track 6
Filename D:\FLAC\Ashley Tisdale - Headstrong (2007) [FLAC]\06 - Unlove You.wav Peak level 99.9 %
Track quality 100.0 %
Test CRC FEA86C72
Copy CRC FEA86C72
Copy OK

Track 7
Filename D:\FLAC\Ashley Tisdale - Headstrong (2007) [FLAC]\07 - Positivity.wav Peak level 99.9 %
Track quality 100.0 %
Test CRC 3DF9D09D
Copy CRC 3DF9D09D
Copy OK

Track 8
Filename D:\FLAC\Ashley Tisdale - Headstrong (2007) [FLAC]\08 - Love Me For Me.wav Pre-gap length 0:00:01.21 Peak level 99.9 %
Track quality 99.9 %
Test CRC 15BDB7F6
Copy CRC 15BDB7F6
Copy OK

Track 9
Filename D:\FLAC\Ashley Tisdale - Headstrong (2007) [FLAC]\09 - Goin' Crazy.wav Pre-gap length 0:00:01.38 Peak level 99.9 %
Track quality 100.0 %
Test CRC C1198612
Copy CRC C1198612
Copy OK

Track 10
Filename D:\FLAC\Ashley Tisdale - Headstrong (2007) [FLAC]\10 - Over It.wav Peak level 100.0 %
Track quality 100.0 %
Test CRC C3F71FDA
Copy CRC C3F71FDA
Copy OK

Track 11
Filename D:\FLAC\Ashley Tisdale - Headstrong (2007) [FLAC]\11 - Dont Touch (The Zoom Song).wav Peak level 99.9 %
Track quality 100.0 %
Test CRC 63908262
Copy CRC 63908262
Copy OK

Track 12
Filename D:\FLAC\Ashley Tisdale - Headstrong (2007) [FLAC]\12 - We'll Be Together.wav Pre-gap length 0:00:01.25 Peak level 99.9 %
Track quality 100.0 %
Test CRC 66F4A474
Copy CRC 66F4A474
Copy OK

Track 13
Filename D:\FLAC\Ashley Tisdale - Headstrong (2007) [FLAC]\13 - Headstrong.wav Peak level 99.9 %
Track quality 100.0 %
Test CRC 164DCFEC
Copy CRC 164DCFEC
Copy OK

Track 14
Filename D:\FLAC\Ashley Tisdale - Headstrong (2007) [FLAC]\14 - Suddenly.wav Peak level 99.9 %
Track quality 100.0 %
Test CRC B8395266
Copy CRC B8395266
Copy OK

No errors occured

End of status report
Download Links:
(Premium Recommended)


All above links are interchangable. No password

Direct Download

Tags: Ashley, Tisdale, Headstrong

Ashley Tisdale - Headstrong (2007) Download via Hotfile Rapidshare Fileserve Megaupload & FileSonic, Ashley Tisdale - Headstrong (2007) free torrent downloads included crack, serial, keygen.


Attention!Information

Members of Guest cannot leave comments.