Babe The Blue OX - (BOX) (1993)

Download Now

Babe The Blue OX - (BOX) (1993)

Babe The Blue OX - (BOX) (1993)
EAC Rip | FLAC with CUE and log | scans | 247mb
MP3 CBR 320kbps | RAR | 106mb
Genre: indie rock, alternative

(BOX) is the debut album by Babe The Blue OX, a trio out of Brooklyn, New York. The group would make it to a major label a few years later but failed to find any level of success. Some critics will say their independent albums were stronger, others like everything they did. This was the first album they did. This was released on the Homestead label.
Babe The Blue OX - (BOX) (1993)

01. Home
02. Honey Do
03. Chicken Head Bone Sucker
04. Gymkhana
05. Spatula
06. Waiting For Water To Boil
07. Booty
08. Born Again
09. National Geographic
10. Tongue-Tied
11. Snicker

Babe The Blue OX - (BOX) (1993)



EAC extraction logfile from 11. May 2007, 10:20 for CD
Babe The Blue OX / (BOX)

Used drive : LITE-ON DVDRW SOHW-1633S Adapter: 0 ID: 0
Read mode : Secure with NO C2, accurate stream, disable cache
Read offset correction : 12
Overread into Lead-In and Lead-Out : No

Used output format : Internal WAV Routines 44.100 Hz; 16 Bit; Stereo

Other options :
Fill up missing offset samples with silence : Yes
Delete leading and trailing silent blocks : No
Installed external ASPI interface

Track 1
Filename D:\FLAC\Babe The Blue OX - (BOX) (1993) [FLAC]\01 - Home.wav Pre-gap length 0:00:02.00 Peak level 88.8 %
Track quality 100.0 %
Test CRC 5281FA1F
Copy CRC 5281FA1F
Copy OK

Track 2
Filename D:\FLAC\Babe The Blue OX - (BOX) (1993) [FLAC]\02 - Honey Do.wav Peak level 81.2 %
Track quality 100.0 %
Test CRC C327A38D
Copy CRC C327A38D
Copy OK

Track 3
Filename D:\FLAC\Babe The Blue OX - (BOX) (1993) [FLAC]\03 - Chicken Head Bone Sucker.wav Pre-gap length 0:00:01.26 Peak level 97.4 %
Track quality 100.0 %
Test CRC 9232E348
Copy CRC 9232E348
Copy OK

Track 4
Filename D:\FLAC\Babe The Blue OX - (BOX) (1993) [FLAC]\04 - Gymkhana.wav Peak level 99.5 %
Track quality 100.0 %
Test CRC 312ADF8C
Copy CRC 312ADF8C
Copy OK

Track 5
Filename D:\FLAC\Babe The Blue OX - (BOX) (1993) [FLAC]\05 - Spatula.wav Pre-gap length 0:00:00.66 Peak level 99.3 %
Track quality 99.9 %
Test CRC BC2168CE
Copy CRC BC2168CE
Copy OK

Track 6
Filename D:\FLAC\Babe The Blue OX - (BOX) (1993) [FLAC]\06 - Waiting For Water To Boil.wav Pre-gap length 0:00:04.33 Peak level 89.2 %
Track quality 100.0 %
Test CRC 5A272AA8
Copy CRC 5A272AA8
Copy OK

Track 7
Filename D:\FLAC\Babe The Blue OX - (BOX) (1993) [FLAC]\07 - Booty.wav Pre-gap length 0:00:03.37 Peak level 88.6 %
Track quality 99.9 %
Test CRC 204BE261
Copy CRC 204BE261
Copy OK

Track 8
Filename D:\FLAC\Babe The Blue OX - (BOX) (1993) [FLAC]\08 - Born Again.wav Peak level 97.6 %
Track quality 99.9 %
Test CRC 731C4048
Copy CRC 731C4048
Copy OK

Track 9
Filename D:\FLAC\Babe The Blue OX - (BOX) (1993) [FLAC]\09 - National Geographic.wav Pre-gap length 0:00:01.70 Peak level 100.0 %
Track quality 100.0 %
Test CRC 11A10FC8
Copy CRC 11A10FC8
Copy OK

Track 10
Filename D:\FLAC\Babe The Blue OX - (BOX) (1993) [FLAC]\10 - Tongue-Tied.wav Pre-gap length 0:00:01.66 Peak level 94.5 %
Track quality 100.0 %
Test CRC 1107F71F
Copy CRC 1107F71F
Copy OK

Track 11
Filename D:\FLAC\Babe The Blue OX - (BOX) (1993) [FLAC]\11 - Snicker.wav Pre-gap length 0:00:01.04 Peak level 100.0 %
Track quality 99.9 %
Test CRC 2978A55D
Copy CRC 2978A55D
Copy OK

No errors occured

End of status report
DOWNLOAD LINKS:
(Premium Recommended)


All above links are interchangable. No password

Direct Download

Babe The Blue OX - (BOX) (1993) Download via Hotfile Rapidshare Fileserve Megaupload & FileSonic, Babe The Blue OX - (BOX) (1993) free torrent downloads included crack, serial, keygen.


Attention!Information

Members of Guest cannot leave comments.